<?xml version="1.0" standalone="no"?>
<!DOCTYPE svg PUBLIC "-//W3C//DTD SVG 1.1//EN" "http://www.w3.org/Graphics/SVG/1.1/DTD/svg11.dtd" >
<svg xmlns="http://www.w3.org/2000/svg">
<defs>
  <font id="LaStudioIcons" horiz-adv-x="412.5">
    <font-face font-family="LaStudioIcons"
      units-per-em="300" ascent="300"
      descent="0" />
    <missing-glyph horiz-adv-x="0" />
    <glyph glyph-name="a-add"
      unicode="&#xF101;"
      horiz-adv-x="300" d="M115.5 298.2C104.4 295.8 98.7 293.4 90.3 287.7C52.8 262.8 45.6 213.3 73.2 174C100.2 136.2 144.3 129.9 176.1 159.3C212.4 193.2 216.3 245.1 184.8 277.2C170.1 291.9 154.8 298.8 134.1 299.4C126.6 299.7 120 299.4 115.5 298.2M142.2 279.9C153.3 278.1 161.4 273.6 170.7 264.3C179.4 255.6 183.9 247.5 186.3 237C192.3 208.8 174.9 174.9 148.2 162.9C143.7 160.5 140.1 160.2 131.1 160.2C120.9 159.9 119.4 160.2 111.9 164.1C91.2 174.3 75 200.7 75 224.7C75 240.3 80.1 252.6 91.8 264.3C106.2 278.7 122.4 283.8 142.2 279.9M243.9 112.5V93.9H206.4V75H243.9V37.5H262.5V75H300V93.9H262.5V131.4H243.9V112.5M106.2 121.2C67.2 117.3 38.1 110.1 18.9 100.2C13.5 97.5 7.5 90.9 3.9 84L0.6 78L0.3 43.5L-0.3 9.3H225V28.2H18.9V50.1C18.9 70.8 18.9 72.3 21.3 76.8C24.6 82.5 29.7 85.5 45.6 90.6C59.1 95.1 75.3 98.7 92.7 101.1C112.5 103.8 175.8 102.3 184.5 99C185.7 98.4 186.3 100.5 187.5 107.4C188.1 112.2 188.4 116.7 188.1 117C185.7 119.4 120.6 122.7 106.2 121.2" />
    <glyph glyph-name="a-chat"
      unicode="&#xF102;"
      horiz-adv-x="300" d="M0 181.2V75H62.1V38.1C62.1 17.7 62.4 1.2 62.7 1.2S86.4 17.7 114.9 38.1L166.5 75H300V287.1H0V181.2M275.1 181.5L274.8 100.2L216.3 99.9L158.1 99.6L123.6 75C104.7 61.5 88.8 50.4 88.5 50.4S87.9 61.5 87.9 75V99.6H24.6V262.5H275.4L275.1 181.5" />
    <glyph glyph-name="a-check"
      unicode="&#xF103;"
      horiz-adv-x="300" d="M115.5 298.2C104.4 295.8 98.7 293.4 90.3 287.7C52.8 262.8 45.6 213.3 73.2 174C100.2 136.2 144.3 129.9 176.1 159.3C212.4 193.2 216.3 245.1 184.8 277.2C170.1 291.9 154.8 298.8 134.1 299.4C126.6 299.7 120 299.4 115.5 298.2M142.2 279.9C153.3 278.1 161.4 273.6 170.7 264.3C179.4 255.6 183.9 247.5 186.3 237C192.3 208.8 174.9 174.9 148.2 162.9C143.7 160.5 140.1 160.2 131.1 160.2C120.9 159.9 119.4 160.2 111.9 164.1C91.2 174.3 75 200.7 75 224.7C75 240.3 80.1 252.6 91.8 264.3C106.2 278.7 122.4 283.8 142.2 279.9M106.2 121.2C71.7 118.2 38.1 110.1 18.9 100.2C13.5 97.5 7.5 90.9 3.9 84L0.6 78L0.3 43.5L-0.3 9.3H150V28.2H18.9V50.1C18.9 70.8 18.9 72.3 21.3 76.8C24.6 82.5 29.7 85.5 45.6 90.6C85.8 104.1 141 106.8 188.7 98.1C198.6 96 203.7 95.7 204 96.6C205.2 98.1 207.9 112.5 207.3 113.1C206.1 114.3 172.5 119.4 158.7 120.6C145.8 121.8 117 122.1 106.2 121.2M248.1 64.8L215.7 32.1L201.6 46.2L187.5 60.3L180.9 53.7L174 46.8L194.7 26.1L215.7 5.4L255.3 44.7L294.6 84.3L288.3 90.9C284.7 94.5 281.7 97.2 281.4 97.2S266.1 82.8 248.1 64.8" />
    <glyph glyph-name="armchair"
      unicode="&#xF104;"
      horiz-adv-x="300" d="M269.4 173.4H264.9C250.8 173.4 239.1 161.7 239.1 147.6V89.1H60.9V147.6C60.9 161.7 49.2 173.4 35.1 173.4H30.6C16.5 173.4 4.8 161.7 4.8 147.6V42.3C4.8 39.3 6.6 37.5 9.3 37.5H32.7V18.6C32.7 15.9 34.8 14.1 37.5 14.1S42.3 15.9 42.3 18.6V37.5H257.7V18.6C257.7 15.9 259.8 14.1 262.5 14.1S267.3 15.9 267.3 18.6V37.5H290.7C293.4 37.5 295.2 39.3 295.2 42.3V147.6C295.2 161.7 283.5 173.4 269.4 173.4zM89.1 135.9C81.9 135.9 75.6 133.5 70.2 129.9V98.4H229.8V129.9C224.4 133.5 218.1 135.9 210.9 135.9H89.1zM35.1 182.7C54.3 182.7 70.2 166.8 70.2 147.6V140.7C75.9 143.4 82.5 145.2 89.1 145.2H210.9C217.5 145.2 224.1 144 229.8 140.7V147.6C229.8 166.8 245.7 182.7 264.9 182.7H271.8V253.2C271.8 271.5 257.4 285.9 239.1 285.9H60.9C42.6 285.9 28.2 271.5 28.2 253.2V182.7H35.1z" />
    <glyph glyph-name="arrow-down"
      unicode="&#xF105;"
      horiz-adv-x="300" d="M140.7 161.4V41.7L103.2 79.2L65.7 116.7L58.8 109.8L52.2 103.2L101.1 54.3L150 5.4L198.9 54.3L247.8 103.2L241.2 109.8L234.3 116.7L196.8 79.2L159.3 41.7V281.4H140.7V161.4" />
    <glyph glyph-name="arrow-left"
      unicode="&#xF106;"
      horiz-adv-x="300" d="M54 198.6L5.4 150L54.3 101.1L103.2 52.2L109.8 58.8L116.7 65.7L79.2 103.2L41.7 140.7H281.4V159.3H41.7L79.2 196.8L116.7 234.3L110.1 240.9C106.8 244.5 103.5 247.2 103.2 247.2S80.7 225.3 54 198.6" />
    <glyph glyph-name="arrow-right"
      unicode="&#xF107;"
      horiz-adv-x="300" d="M189.9 240.9L183.6 234.3L220.8 196.8L258.3 159.3H18.9V140.7H258.3L220.8 103.2L183.3 65.7L190.2 58.8L196.8 52.2L245.7 101.1L294.6 150L246 198.6C219.3 225.3 197.1 247.2 196.8 247.2S193.5 244.5 189.9 240.9" />
    <glyph glyph-name="arrow-up"
      unicode="&#xF108;"
      horiz-adv-x="300" d="M100.8 245.4L52.2 196.8L58.8 190.2L65.7 183.3L103.2 220.8L140.7 258.3V18.6H159.3V258.3L196.8 220.8L234.3 183.3L241.2 190.2L247.8 196.8L199.2 245.4C172.5 272.4 150.3 294.3 150 294.3S127.5 272.4 100.8 245.4" />
    <glyph glyph-name="b-chat"
      unicode="&#xF109;"
      horiz-adv-x="300" d="M0 199.8V112.5H50.4L50.7 75.6L51 38.7L102.6 75.6L154.2 112.5H249.6V287.1H0V199.8M225 199.8V137.1H145.8L110.4 111.9L75 87V137.1H24.6V262.5H225V199.8M275.4 168.9V87.9H225V68.7C225 57.9 224.7 49.2 224.4 49.2S210.9 57.9 194.7 68.7L165.6 87.9L151.8 87.6L137.7 87.3V62.7L148.5 62.4L159.6 62.1L204.3 32.1L249 2.4L249.3 32.1L249.6 62.1H300V249.6H275.4V168.9" />
    <glyph glyph-name="b-comment"
      unicode="&#xF10A;"
      horiz-adv-x="300" d="M116.7 298.8C56.4 290.4 10.5 252.6 1.8 204C-3 177.6 3.3 151.8 20.1 129.3L24.6 123.3V42.3L59.1 59.4L93.6 76.8L100.5 70.2C108.6 62.1 117.3 56.4 128.4 51C148.2 41.4 162.6 38.4 189.3 38.1L209.1 37.8L242.4 21.3L275.4 4.8V70.5L281.1 76.8C305.7 103.8 306 143.4 281.7 172.8L275.1 180.9L274.5 190.8C272.7 241.8 229.5 285.3 168.6 297C156.9 299.4 128.1 300.3 116.7 298.8M157.8 273.6C188.1 269.1 210.9 257.4 230.1 236.7C244.2 221.4 250.5 204.9 249.3 183.9C248.1 163.5 242.4 150.6 226.2 134.7C197.7 105.9 155.7 94.5 110.1 103.2L95.4 105.9L73.5 94.5C61.8 88.2 51.6 83.1 51.3 83.1C50.7 83.1 50.4 94.2 50.4 107.7V132L44.1 139.5C36.6 148.2 30.3 159.3 27.6 169.2C25.2 177.6 24.9 193.5 27 203.4C33.6 234.9 67.8 263.7 107.1 271.8C127.5 275.7 139.8 276.3 157.8 273.6M274.2 131.7C276.6 116.4 271.5 103.2 258.3 89.1L249.6 80.1V63C249.6 53.4 249.3 45.6 249 45.6S240 50.1 229.5 55.2L210.6 64.5L198.3 63.3C178.8 61.2 158.4 64.5 142.2 71.7L136.5 74.4L141.9 74.7C165.6 76.2 187.5 81.6 205.8 90.3C231.6 102.3 249.9 118.8 262.2 140.4L267.6 150.3L270.3 144.3C271.8 141 273.6 135.3 274.2 131.7" />
    <glyph glyph-name="b-dribbble"
      unicode="&#xF10B;"
      horiz-adv-x="257.13" d="M171.3 48.9Q164.4 89.1 147.9 132.3H147.6L147.3 132Q144.6 131.1 140.1 129.3T123.3 121.2T100.2 107.4T78.3 88.2T61.2 63.6L58.5 65.4Q89.4 40.2 128.7 40.2Q150.6 40.2 171.3 48.9zM140.4 150.6Q137.1 158.7 131.7 169.2Q79.5 153.6 18.9 153.6V150Q18.9 129.3 26.1 110.4T46.8 76.8Q55.2 91.5 67.5 104.7T91.5 125.4T113.4 138.9T129.9 147L136.2 149.1Q136.8 149.4 138.3 149.7T140.4 150.6zM122.7 186Q102.6 221.7 81.6 249.3Q58.5 238.5 42.6 218.1T21 172.5Q71.7 172.5 122.7 186zM237 132.6Q201.9 142.5 168.6 137.4Q183.3 97.5 189.9 58.8Q208.5 71.4 221.1 90.6T237 132.6zM102.3 256.8Q102 256.8 102 256.5Q102 256.8 102.3 256.8zM201 232.5Q170.1 259.8 128.7 259.8Q115.8 259.8 102.6 256.8Q124.5 228.3 143.7 192.6Q155.4 197.1 165.6 202.8T181.8 213T192.6 222.6T198.9 229.5zM238.5 151.2Q237.9 189.9 213.6 219.9L213.3 219.6Q211.8 217.5 210 215.7T202.8 208.2T190.8 198T174.3 187.2T152.1 176.4Q156.3 167.4 159.6 160.5Q159.9 159.6 160.5 157.5T162 154.8Q168 155.4 174.3 156T186.6 156.3T198.3 156T208.8 155.4T218.4 154.5T226.5 153.3T232.5 152.4T236.7 151.5zM257.1 150Q257.1 114.9 240 85.5T193.2 38.7T128.7 21.3T63.9 38.7T17.4 85.5T0 150T17.4 214.5T63.9 261.3T128.7 278.7T193.2 261.3T240 214.5T257.1 150z" />
    <glyph glyph-name="b-dropbox"
      unicode="&#xF10C;"
      horiz-adv-x="300" d="M67.2 181.8L150 130.5L92.7 82.8L10.8 136.2zM232.5 88.8V70.8L150.3 21.6V21.3V21.6L150 21.3V21.6L68.1 70.8V88.8L92.7 72.6L150 120.3V120.6L150.3 120.3V120.6V120.3L207.9 72.6zM92.7 280.2L150 232.5L67.2 181.8L10.8 226.8zM232.8 181.8L289.2 136.2L207.3 82.8L150 130.5zM207.3 280.2L289.2 226.8L232.8 181.8L150 232.5z" />
    <glyph glyph-name="b-evernote"
      unicode="&#xF10D;"
      horiz-adv-x="229.79999999999998" d="M225 235.8Q225 234.6 226.5 213.9T229.2 170.7T228.9 119.4T223.2 68.1T207.9 30.3T180.6 15Q134.4 15 122.4 22.8Q114.6 28.8 117 61.8Q117.6 73.8 128.1 79.5T148.8 85.2L159 84.6L157.8 63.6Q154.2 63 146.4 63Q140.4 63 139.2 55.2Q138 43.8 151.2 42.6L177 43.8Q188.4 45 185.4 84.6Q184.8 89.4 180 92.4T169.8 96.3T155.1 98.7T141 101.4Q132.6 103.8 127.2 109.8T119.1 120.9T115.8 126T113.4 108.6T104.4 91.2Q91.2 91.2 62.7 95.7T28.2 106.2Q18 116.4 9.6 150.9T1.2 196.2Q1.2 206.4 18.6 205.2H53.4Q76.8 205.2 76.8 226.8Q76.8 230.4 76.5 242.4T76.2 260.4Q76.2 285 88.2 285Q115.2 285 124.2 280.8Q129.6 278.4 132.9 273T136.8 262.8L138 258.6L198.6 255Q201.6 255 206.1 254.1T217.8 248.4T225 235.8zM196.2 145.2Q198 147 195.6 154.8T186.9 170.4T172.2 178.2T158.7 171.3T152.4 157.5T152.4 148.8Q154.8 147 156.9 147.3T164.7 148.8T174 150Q178.2 150 183.3 148.2T191.7 145.2T196.2 145.2zM51.6 237.6Q51.6 231 43.2 231H0L52.8 282.6Q51.6 241.2 51.6 237.6z" />
    <glyph glyph-name="b-facebook"
      unicode="&#xF10E;"
      horiz-adv-x="171.42" d="M160.5 297.9V253.8H134.4Q120 253.8 114.9 247.8T109.8 229.8V198H159L152.4 148.5H109.8V21.3H58.5V148.5H15.9V198H58.5V234.6Q58.5 265.8 75.9 282.9T122.4 300Q147 300 160.5 297.9z" />
    <glyph glyph-name="b-flickr-circled"
      unicode="&#xF10F;"
      horiz-adv-x="288" d="M144 294Q204 294 246 252T288 150Q288 90.6 246 48.3T144 6Q84.6 6 42.3 48.3T0 150Q0 210 42.3 252T144 294zM105.6 120Q117.6 120 126.6 129T135.6 150Q135.6 162.6 126.6 171.6T105.6 180.6T84.6 171.6T75.6 150Q75.6 138 84.6 129T105.6 120zM182.4 120Q195 120 203.7 129T212.4 150Q212.4 162.6 203.7 171.6T182.4 180.6Q170.4 180.6 161.7 171.6T153 150Q153 138 161.7 129T182.4 120z" />
    <glyph glyph-name="b-flickr"
      unicode="&#xF110;"
      horiz-adv-x="270" d="M58.8 90Q34.8 90 17.4 107.7T0 150Q0 175.2 17.1 192.6T58.8 210T100.5 192.6T117.6 150Q117.6 125.4 100.2 107.7T58.8 90zM211.2 90Q187.2 90 169.8 107.7T152.4 150Q152.4 175.2 169.5 192.6T211.2 210T252.9 192.6T270 150Q270 125.4 252.6 107.7T211.2 90z" />
    <glyph glyph-name="b-foursquare"
      unicode="&#xF111;"
      horiz-adv-x="214.29" d="M167.4 227.4L173.7 259.8Q174.6 263.7 172.2 266.4T166.2 269.4H47.1Q43.2 269.4 40.5 266.4T38.1 260.4V75.9Q38.1 74.7 39 75.9L87.6 134.7Q91.5 139.2 94.2 140.4T102 141.6H142.2Q145.8 141.6 148.2 144T151.5 149.1Q155.4 170.7 157.5 180.9Q158.1 184.5 155.7 187.8T149.4 190.8H100.2Q95.4 190.8 92.4 194.1T89.1 202.2V209.1Q89.1 213.9 92.4 217.2T100.2 220.2H158.1Q161.1 220.2 164.1 222.3T167.4 227.4zM205.5 264.6Q202.8 252.3 196.5 219.9T184.8 161.4T179.1 132.3Q177.9 128.7 177.6 126.9T175.2 121.5T171 115.8T164.7 112.2T154.8 110.7H109.5Q107.4 110.7 105.9 108.9Q104.4 107.4 34.5 26.4Q30.9 22.2 24.6 21.6T16.5 22.5Q7.5 26.1 7.5 38.7V274.8Q7.5 284.1 13.8 292.2T33.9 300H182.4Q198.3 300 203.7 291T205.5 264.6zM205.5 264.6L179.1 132.3Q179.7 135 184.8 161.4T196.5 219.9T205.5 264.6z" />
    <glyph glyph-name="b-github-circled"
      unicode="&#xF112;"
      horiz-adv-x="257.13" d="M128.7 278.7Q163.5 278.7 193.2 261.3T240 214.5T257.1 150Q257.1 108 232.5 74.4T169.2 27.9Q164.7 27 162.6 29.1T160.5 34.2V47.1V69.6Q160.5 85.8 151.8 93.3Q161.4 94.2 168.9 96.3T184.8 102.9T198.3 114T207.3 131.4T210.6 156.6Q210.6 176.7 197.4 191.1Q203.7 206.4 196.2 225.3Q191.4 226.8 182.4 223.5T167.1 216L160.8 212.1Q145.2 216.6 128.7 216.6T96.3 212.1Q93.9 213.9 89.4 216.6T75.3 223.2T61.2 225.3Q53.7 206.4 59.7 191.1Q46.5 176.7 46.5 156.6Q46.5 142.5 50.1 131.7T58.8 114T72.3 102.9T87.9 96.3T105 93.3Q98.7 87.3 96.9 75.9Q93.3 74.4 89.4 73.5T79.8 72.6T69 76.2T59.7 86.7Q56.4 92.1 51.6 95.4T43.2 99.6L39.9 99.9Q36.3 99.9 35.1 99.3T34.2 97.2T35.7 94.8T37.8 93L39 92.1Q42.6 90.3 46.2 85.8T51.6 77.1L53.4 73.2Q55.5 66.9 60.6 63T71.7 57.9T83.4 57T92.7 57.3L96.6 58.2V43.2Q96.6 34.8 96.9 34.2Q96.9 31.2 94.5 29.1T87.9 27.9Q49.2 40.8 24.6 74.4T0 150Q0 185.1 17.4 214.5T63.9 261.3T128.7 278.7zM48.6 93.9Q49.2 95.1 47.7 96Q45.9 96.3 45.3 95.7Q45 94.5 46.5 93.6T48.6 93.9zM54 88.2Q55.2 89.1 53.7 90.9Q51.9 92.4 51 91.5Q49.8 90.6 51.3 88.8T54 88.2zM58.8 80.7Q60.6 81.9 58.8 84Q57.6 86.1 56.1 84.9Q54.6 84 56.1 81.9T58.8 80.7zM66 73.8Q67.2 75 65.4 76.8Q63.3 78.9 62.1 77.4Q60.6 75.9 62.7 74.1Q64.5 72.3 66 73.8zM75.6 69.6Q75.9 71.4 73.2 72.3Q70.8 72.9 70.2 71.1T72.3 68.4Q74.7 67.5 75.6 69.6zM86.1 68.7Q86.1 70.8 83.1 70.5Q80.4 70.5 80.4 68.7Q80.4 66.6 83.4 66.9Q86.1 66.9 86.1 68.7zM95.7 70.2Q95.4 72.3 92.7 71.7Q90 71.4 90.3 69.3T93.3 68.1T95.7 70.2z" />
    <glyph glyph-name="b-github-squared"
      unicode="&#xF113;"
      horiz-adv-x="257.13" d="M87 99Q87.6 100.2 86.4 101.4Q84.9 102.6 84 101.7Q83.4 100.5 84.6 99.6Q86.1 98.4 87 99zM82.2 105.9Q81.3 107.1 80.1 106.8Q79.2 105.9 80.1 104.7Q81.3 103.2 82.2 103.8T82.2 105.9zM75.3 112.8Q75.6 113.4 74.4 114Q73.2 114.3 73.2 113.7Q72.6 112.8 73.8 112.2Q75.3 111.9 75.3 112.8zM78.9 108.9Q79.2 108.9 79.2 109.5T78.6 110.4Q77.4 111.6 76.8 111T77.1 109.2Q78 108.3 78.9 108.9zM93.3 96.3Q93.6 97.5 91.8 98.1Q90.3 98.7 89.7 97.5T91.2 95.7Q92.7 95.1 93.3 96.3zM100.2 95.7Q100.2 97.2 98.4 97.2T96.6 95.7T98.4 94.5T100.2 95.7zM106.8 96.9Q106.5 98.1 104.7 97.8T103.2 96.3Q103.5 94.8 105 95.4T106.8 96.9zM214.2 150Q214.2 185.4 189.3 210.6T128.7 235.8T68.1 210.6T42.9 150Q42.9 122.1 59.4 99.6T101.4 68.7Q104.4 68.1 105.9 69.6T107.4 72.9Q107.4 81.6 107.1 88.8Q106.2 88.5 104.7 88.2T98.7 87.9T90.6 88.8T83.4 92.1T78.3 99Q74.4 108.9 68.7 111.3L68.1 111.9L66.6 113.4L65.7 114.9L66.3 116.1L69.6 116.7Q70.5 116.7 72 116.4T77.1 113.7T82.5 107.7Q85.2 103.2 88.8 100.8T96 98.4T102.6 99T107.4 100.5Q108.6 108.6 113.1 112.2Q104.7 113.1 98.7 115.2T86.4 121.8T77.1 134.4T73.8 154.5Q73.8 167.7 82.8 177.6Q78.6 187.8 83.7 200.1Q86.7 201.3 92.7 198.9T102.9 194.1L107.1 191.4Q117 194.1 128.7 194.1T150 191.4Q151.8 192.6 154.8 194.4T164.1 198.6T173.7 200.1Q178.5 187.8 174.6 177.6Q183.3 167.7 183.3 154.5Q183.3 144.9 180.9 137.7T174.9 126T166.2 118.5T155.7 114.3T144.3 112.2Q150 107.1 150 96.3V81.3Q150 72.9 149.7 72.9Q149.7 70.8 151.2 69.6T155.7 68.7Q181.5 77.4 198 99.6T214.2 150zM257.1 230.4V69.6Q257.1 49.8 243 35.7T208.8 21.3H48.3Q28.2 21.3 14.1 35.7T0 69.6V230.4Q0 250.2 14.1 264.3T48.3 278.7H208.8Q228.9 278.7 243 264.3T257.1 230.4z" />
    <glyph glyph-name="b-github"
      unicode="&#xF114;"
      horiz-adv-x="278.58" d="M107.1 96.3Q107.1 89.7 105 82.8T97.8 69.9T85.8 64.2T73.5 69.9T66.3 82.8T64.2 96.3T66.3 110.1T73.5 123T85.8 128.7T97.8 123T105 110.1T107.1 96.3zM214.2 96.3Q214.2 89.7 212.1 82.8T204.9 69.9T192.9 64.2T180.6 69.9T173.4 82.8T171.3 96.3T173.4 110.1T180.6 123T192.9 128.7T204.9 123T212.1 110.1T214.2 96.3zM241.2 96.3Q241.2 116.4 229.5 130.5T198.3 144.6Q191.4 144.6 165.6 141Q153.6 139.2 139.2 139.2T113.1 141Q87.6 144.6 80.4 144.6Q60.6 144.6 49.2 130.5T37.5 96.3Q37.5 81.6 42.9 70.8T56.4 53.4T76.8 43.5T100.2 38.4T125.1 37.2H153.3Q167.1 37.2 178.2 38.4T201.6 43.5T222.3 53.4T235.8 70.8T241.2 96.3zM278.7 126Q278.7 91.2 268.5 70.5Q261.9 57.6 250.8 48.3T227.1 33.9T198.6 25.8T169.8 22.2T141.9 21.3Q129 21.3 118.2 21.9T93.6 24T68.1 29.1T45 37.8T24.9 51.3T10.5 70.5Q0 91.2 0 126Q0 165.6 22.8 192.3Q18.3 205.8 18.3 220.8Q18.3 240 26.7 257.1Q45 257.1 58.5 250.5T90.3 229.8Q114.9 235.8 141.9 235.8Q166.8 235.8 189 230.4Q206.4 244.2 220.2 250.5T251.7 257.1Q260.4 240 260.4 220.8Q260.4 206.1 255.9 192.6Q278.7 165.9 278.7 126z" />
    <glyph glyph-name="b-instagram-1"
      unicode="&#xF115;"
      horiz-adv-x="258" d="M207 150Q207 157.8 205.2 165H258V61.8Q258 45 246.3 33T217.8 21H40.2Q23.4 21 11.7 33T0 61.8V165H52.2Q51 155.4 51 150Q51 118.2 73.8 95.1T129 72Q160.8 72 183.9 95.1T207 150zM217.8 279Q234.6 279 246.3 267.3T258 238.8V195H192.6Q169.2 228 129 228Q87.6 228 65.4 195H0V238.8Q0 255.6 11.7 267.3T40.2 279H217.8zM237 229.2V250.8Q237 258 229.8 258H208.2Q201 258 201 250.8V229.2Q201 226.8 203.1 224.4T208.2 222H229.8Q237 222 237 229.2zM177 150Q177 130.2 162.9 116.1T129 102T95.1 116.1T81 150Q81 170.4 95.1 184.2T129 198T162.9 184.2T177 150z" />
    <glyph glyph-name="b-instagram"
      unicode="&#xF116;"
      horiz-adv-x="257.13" d="M171.3 150Q171.3 167.7 159 180.3T128.7 192.9T98.4 180.3T85.8 150T98.4 119.7T128.7 107.1T159 119.7T171.3 150zM194.4 150Q194.4 122.7 175.2 103.2T128.7 84T81.9 103.2T62.7 150T81.9 196.8T128.7 216T175.2 196.8T194.4 150zM212.7 218.7Q212.7 212.4 208.2 207.9T197.1 203.4T186.3 207.9T181.8 218.7T186.3 229.5T197.1 234T208.2 229.5T212.7 218.7zM128.7 255.6H98.1Q92.1 255.6 81.9 255T64.8 253.5T52.8 250.2Q44.4 246.9 38.1 240.6T28.2 225.9Q26.4 221.1 25.2 213.9T23.4 196.5T23.1 180.6T23.1 162.9T23.1 150T23.1 137.1T23.1 119.4T23.4 103.5T25.2 86.1T28.2 74.1Q31.8 65.7 38.1 59.4T52.8 49.8Q57.6 48 64.8 46.5T81.9 45T98.1 44.4T115.8 44.4T128.7 44.4T141.3 44.4T159 44.4T175.2 45T192.6 46.5T204.3 49.8Q212.7 53.1 219.3 59.4T228.9 74.1Q230.7 78.9 231.9 86.1T233.7 103.5T234 119.4T234 137.1T234 150T234 162.9T234 180.6T233.7 196.5T231.9 213.9T228.9 225.9Q225.6 234.3 219.3 240.6T204.3 250.2Q199.5 252 192.6 253.5T175.2 255T159 255.6T141.3 255.6T128.7 255.6zM257.1 150Q257.1 111.6 256.2 96.9Q254.7 62.1 235.5 42.9T181.8 22.2Q166.8 21.3 128.7 21.3T75.6 22.2Q40.8 24 21.6 42.9T0.9 96.9Q0 111.6 0 150T0.9 203.1Q2.4 237.9 21.6 257.1T75.6 277.8Q90.3 278.7 128.7 278.7T181.8 277.8Q216.6 276 235.5 257.1T256.2 203.1Q257.1 188.4 257.1 150z" />
    <glyph glyph-name="b-lastfm-squared"
      unicode="&#xF117;"
      horiz-adv-x="257.13" d="M239.7 123.9Q239.7 153 200.7 163.8Q194.7 165.6 191.7 166.8T185.4 171T180.6 178.5Q180.6 179.1 180 180T179.7 182.1T179.4 183.3Q179.4 189.3 183.6 193.2T193.8 197.1Q202.8 197.1 205.5 194.7Q208.8 192.3 212.1 186.3L227.4 198Q221.1 207 219.3 208.8Q213.9 213.6 207.9 215.4T193.8 216.9Q180.3 216.9 169.8 207.3T159.6 184.2Q159.6 183.3 159.9 180.6Q162.6 164.4 170.7 156.9T195.6 144.9Q200.4 143.4 203.7 142.2T211.2 138.6T217.8 132.9T219.9 125.1V124.2Q220.2 114.6 213.3 108.6T196.5 102.9Q180 102.9 168.3 126.9Q164.7 134.7 159.9 147.3T151.8 168.3T142.8 186.9T130.2 202.8T113.1 213T88.5 216.9Q71.4 216.9 56.4 207.6T32.1 182.7T23.7 150.6Q24.6 132.3 32.1 117.3T54.6 92.4T87.3 83.1Q118.5 83.1 134.1 101.4Q137.4 105.9 139.2 110.1L129.3 128.4Q122.1 114.9 112.8 108.9T88.2 102.9Q69 102.9 56.4 117.3T43.5 151.5Q43.5 169.2 57.3 183.3T88.5 197.1Q107.1 197.1 117 188.4T134.4 159.3Q135.6 156 138.6 147.9T143.4 135T148.5 122.7T155.1 110.4T162.6 99.9T171.9 90.9T183 85.2T196.5 83.1Q214.2 83.1 227.1 94.8T239.7 123.9zM257.1 230.4V69.6Q257.1 49.8 243 35.7T208.8 21.3H48.3Q28.2 21.3 14.1 35.7T0 69.6V230.4Q0 250.2 14.1 264.3T48.3 278.7H208.8Q228.9 278.7 243 264.3T257.1 230.4z" />
    <glyph glyph-name="b-lastfm"
      unicode="&#xF118;"
      horiz-adv-x="300" d="M216.3 182.1Q216.3 181.2 218.1 175.2Q219.6 170.4 222.3 167.1T228.9 161.4T236.4 158.1T245.7 155.1Q300 140.1 300 99.6Q300 75.3 282.3 59.1T239.7 42.9Q229.8 42.9 221.1 45.9T205.8 53.7T192.9 66T182.4 80.7T173.4 98.1T166.2 115.2T159.6 133.2T153.6 149.1Q148.2 162.6 143.1 171.3T130.8 187.5T113.4 198.3T89.7 201.6Q73.8 201.6 59.1 192.3T36 168T27.6 137.1Q27.6 110.4 45.3 90.3T89.4 70.2Q119.1 70.2 132.6 86.1Q141.9 96.9 146.4 105.6L160.5 80.1Q158.1 74.4 153.3 68.4Q131.4 42.9 88.5 42.9Q63.9 42.9 43.2 56.1T11.4 90.9T0 136.8Q0 154.5 7.2 171.3T26.7 200.7T55.5 221.1T89.7 228.9Q104.4 228.9 116.4 225.6T137.1 217.2T153 204T165 187.2T174.9 167.7T183.3 147T191.7 125.1T201 103.8Q216.9 70.2 240 70.2Q253.5 70.2 263.1 78.3T272.7 99.9Q272.7 107.1 269.4 111.9T261 119.7T249 125.1T234.9 129.6T220.2 135.3T206.7 144T195.6 157.5T189.3 178.2Q188.7 180.9 188.7 183.6Q188.7 202.2 203.4 215.7T236.7 228.9Q249.6 228.3 256.8 226.5T271.8 217.5Q273.6 215.7 275.7 213.3T279.9 207.3T283.2 202.8L261.6 186.3Q257.1 194.4 252.6 198Q248.7 201.6 236.1 201.6Q228 201.6 222.3 196.2T216.3 182.1z" />
    <glyph glyph-name="b-line"
      unicode="&#xF119;"
      horiz-adv-x="262.5" d="M159.3 180.3V138.6C159.3 137.7 158.7 136.8 157.5 136.8H150.9C150.3 136.8 149.7 137.1 149.4 137.7L130.2 163.5V138.6C130.2 137.7 129.3 136.8 128.4 136.8H121.8C120.6 136.8 119.7 137.7 119.7 138.6V180.3C119.7 181.5 120.6 182.1 121.8 182.1H128.4C129 182.1 129.6 181.8 129.9 181.5L149.1 155.7V180.3C149.1 181.5 149.7 182.1 150.9 182.1H157.5C158.7 182.1 159.3 181.5 159.3 180.3zM111.3 182.1H104.7C103.8 182.1 102.9 181.5 102.9 180.3V138.6C102.9 137.7 103.8 136.8 104.7 136.8H111.3C112.5 136.8 113.4 137.7 113.4 138.6V180.3C113.4 181.5 112.5 182.1 111.3 182.1zM95.4 147.3H77.1V180.3C77.1 181.5 76.2 182.1 75.3 182.1H68.4C67.5 182.1 66.6 181.5 66.6 180.3V138.6C66.6 138.3 66.9 137.7 67.2 137.4S67.8 136.8 68.4 136.8H95.1C96.3 136.8 97.2 137.7 97.2 138.9V145.5C97.2 146.4 96.3 147.3 95.4 147.3zM194.7 182.1H167.7C166.8 182.1 165.9 181.5 165.9 180.3V138.6C165.9 137.7 166.8 136.8 167.7 136.8H194.7C195.6 136.8 196.5 137.7 196.5 138.6V145.5C196.5 146.4 195.6 147.3 194.7 147.3H176.4V154.2H194.7C195.6 154.2 196.5 155.1 196.5 156.3V162.9C196.5 164.1 195.6 164.7 194.7 164.7H176.4V171.9H194.7C195.6 171.9 196.5 172.5 196.5 173.7V180.3C196.5 181.5 195.6 182.1 194.7 182.1zM262.5 233.4V66.3C262.5 39.9 240.9 18.6 214.5 18.6H47.4C21.3 18.9 0 40.5 0 66.6V233.7C0 260.1 21.6 281.4 48 281.4H215.1C241.2 281.1 262.5 259.8 262.5 233.4zM226.5 161.7C226.5 204.3 183.6 239.1 130.8 239.1C78.3 239.1 35.4 204.3 35.4 161.7C35.4 123.3 69.3 91.2 115.2 84.9C126.3 82.5 125.1 78.6 122.7 63.6C122.1 61.2 120.6 54 130.8 58.2C141 62.7 186 90.6 206.1 113.7C219.9 129 226.5 144.3 226.5 161.7z" />
    <glyph glyph-name="b-linkedin-squared"
      unicode="&#xF11A;"
      horiz-adv-x="257.13" d="M39.6 63.3H78.3V179.4H39.6V63.3zM81 215.4Q80.7 224.1 74.7 229.8T59.4 235.5T43.5 229.8T37.2 215.4Q37.2 206.7 43.2 201T58.8 195.3Q68.7 195.3 74.7 201T81 215.4zM178.8 63.3H217.5V129.9Q217.5 155.7 205.2 168.9T173.1 182.1Q150.3 182.1 138 162.6H138.3V179.4H99.6Q100.2 168.3 99.6 63.3H138.3V128.4Q138.3 134.7 139.5 137.7Q141.9 143.4 147 147.6T159.3 151.8Q178.8 151.8 178.8 125.4V63.3zM257.1 230.4V69.6Q257.1 49.8 243 35.7T208.8 21.3H48.3Q28.2 21.3 14.1 35.7T0 69.6V230.4Q0 250.2 14.1 264.3T48.3 278.7H208.8Q228.9 278.7 243 264.3T257.1 230.4z" />
    <glyph glyph-name="b-linkedin"
      unicode="&#xF11B;"
      horiz-adv-x="257.13" d="M58.5 195.3V29.4H3.3V195.3H58.5zM62.1 246.6Q62.1 234.3 53.4 226.2T30.9 218.1H30.6Q16.8 218.1 8.4 226.2T0 246.6Q0 258.9 8.7 267T31.2 275.1T53.4 267T62.1 246.6zM257.1 124.5V29.4H202.2V118.2Q202.2 135.9 195.3 145.8T174 155.7Q163.5 155.7 156.6 150T145.8 135.6Q144 130.5 144 122.1V29.4H88.8Q89.1 96.3 89.1 137.7T89.1 187.2L88.8 195.3H144V171.3H143.7Q147 176.7 150.6 180.6T159.9 189.3T174.6 196.5T193.8 199.2Q222.3 199.2 239.7 180.3T257.1 124.5z" />
    <glyph glyph-name="b-meeting-2"
      unicode="&#xF11C;"
      horiz-adv-x="300" d="M287.4 293.7H137.4C134.1 293.7 131.4 291 131.4 287.4V156.3C131.4 153.9 132.6 151.8 134.7 150.6C135.6 150.3 136.5 150 137.4 150C138.9 150 140.1 150.6 141.3 151.2L195.9 193.8H287.4C291 193.8 293.7 196.5 293.7 200.1V287.4C293.7 291 291 293.7 287.4 293.7zM119.7 51.3C109.8 59.4 92.7 68.7 68.7 68.7S27.9 59.4 18 51.3C10.5 45.6 6.3 36.6 6.3 27V12.6C6.3 9 9 6.3 12.6 6.3H125.1C128.4 6.3 131.4 9 131.4 12.6V27C131.4 36.6 126.9 45.6 119.7 51.3zM31.2 125.1A37.5 37.5 0 0 0 106.2 125.1A37.5 37.5 0 0 0 31.2 125.1M282.3 51.3C272.1 59.4 255.3 68.7 231.3 68.7S190.2 59.4 180.3 51.3C173.1 45.6 168.9 36.6 168.9 27V12.6C168.9 9 171.6 6.3 174.9 6.3H287.4C291 6.3 293.7 9 293.7 12.6V27C293.7 36.6 289.5 45.6 282.3 51.3zM193.8 125.1A37.5 37.5 0 0 0 268.8 125.1A37.5 37.5 0 0 0 193.8 125.1" />
    <glyph glyph-name="b-meeting"
      unicode="&#xF11D;"
      horiz-adv-x="300" d="M125.4 218.4V136.8L130.5 141C133.2 143.1 150.9 157.5 170.1 172.8L204.9 200.4H300V300H125.4V218.4M275.1 249.9L275.4 225H195.6L174.9 208.5C163.5 199.2 153.3 191.1 152.1 190.2C150 188.4 150 190.5 150 231.9V275.4L212.4 275.1L274.8 274.8L275.1 249.9M55.8 173.1C45.3 169.8 34.8 160.5 30 151.2C18.9 129.6 28.2 102.6 50.4 91.8C56.1 88.8 58.2 88.5 68.7 88.5C78.9 88.5 81 88.8 87 91.8C94.2 95.1 104.1 104.4 107.4 110.7C114 123 114 139.5 107.4 152.1C104.1 158.4 94.2 167.4 87 171C81.6 173.4 78.3 174 70.2 174.3C64.5 174.6 58.5 174 55.8 173.1M215.4 171.9C191.1 161.7 180.6 134.7 192.3 111.3C195.6 104.4 205.5 95.1 213 91.8C219 88.8 221.1 88.5 231.6 88.5C241.8 88.5 243.9 88.8 249.6 91.8C267 100.2 277.5 120 274.2 138C271.5 152.4 263.1 164.1 249.9 170.7C244.5 173.4 241.5 174 232.8 174.3C223.5 174.6 221.1 174.3 215.4 171.9M77.4 147.6C90.6 141 90.3 120.6 76.8 114.3C65.1 108.9 50.4 117.9 50.4 130.8C50.4 145.2 64.5 154.2 77.4 147.6M241.2 146.7C255.6 136.2 250.5 114.9 232.8 112.8C213.3 110.7 205.2 138.3 222.6 147.6C227.7 150.6 236.7 150.3 241.2 146.7M53.1 73.8C38.4 71.1 22.8 63.9 12.3 54.6C9.6 52.5 6 47.7 4.2 43.8C0.6 37.2 0.6 36.3 0.3 18.3L-0.3 0H137.4L136.8 18.9C136.5 41.4 135.6 43.8 125.4 54C118.2 61.2 103.5 69.3 92.1 72C83.4 74.4 61.5 75.3 53.1 73.8M213.9 73.2C192.6 69 173.1 57 166.5 43.8C163.8 38.4 163.5 36.6 163.2 18.9L162.6 0H300.3L299.7 18.6C299.4 36.6 299.4 37.2 295.8 44.1C289.8 55.5 273 67.2 255 72C245.1 74.7 224.1 75.3 213.9 73.2M86.7 47.4C100.8 43.2 111 36 112.2 29.1L112.8 24.6H68.7C29.1 24.6 24.6 24.9 24.6 26.4C24.6 30.6 28.5 36 33.6 39.6C48.6 49.5 68.1 52.5 86.7 47.4M252.6 46.2C262.8 42.6 271.2 36.9 273.6 31.8C277.2 24.3 278.7 24.6 230.7 24.6H187.2L187.8 29.1C188.7 33.9 193.2 38.4 201.6 42.6C217.5 50.7 235.5 51.9 252.6 46.2" />
    <glyph glyph-name="b-pinterest-circled"
      unicode="&#xF11E;"
      horiz-adv-x="257.13" d="M257.1 150Q257.1 114.9 240 85.5T193.2 38.7T128.7 21.3Q110.1 21.3 92.1 26.7Q102 42.3 105 54.3Q106.8 60 114.3 89.7Q117.6 83.1 126.3 78.3T145.5 73.5Q165.9 73.5 181.8 84.9T206.4 116.4T215.1 161.7Q215.1 180.9 204.9 197.7T176.1 224.7T133.5 235.5Q115.8 235.5 100.5 230.4T74.7 217.5T56.4 199.2T45.3 177.6T41.7 155.1Q41.7 137.7 48.3 124.5T68.1 105.9Q72.9 103.8 74.4 109.2Q74.7 110.4 75.6 114.3T77.1 119.4Q78 123.3 75.3 126.6Q66.6 136.8 66.6 151.8Q66.6 177 84 195.3T129.9 213.6Q155.1 213.6 169.5 199.8T183.6 164.1Q183.6 135.6 171.9 115.8T142.5 95.7Q132.3 95.7 126.3 103.2T122.4 120.6Q123.6 126.3 126.9 136.2T132 153.3T133.8 166.2Q133.8 174.6 129.3 180T116.4 185.4Q105.9 185.4 98.7 176.1T91.5 152.1Q91.5 140.1 95.7 131.7L79.2 61.8Q76.5 50.1 77.1 32.1Q42.6 47.4 21.3 79.2T0 150Q0 185.1 17.4 214.5T63.9 261.3T128.7 278.7T193.2 261.3T240 214.5T257.1 150z" />
    <glyph glyph-name="b-pinterest-squared"
      unicode="&#xF11F;"
      horiz-adv-x="257.13" d="M208.8 278.7Q228.9 278.7 243 264.3T257.1 230.4V69.6Q257.1 49.8 243 35.7T208.8 21.3H87.6Q101.7 41.7 105.6 56.7Q107.1 62.4 114.6 91.5Q117.9 85.2 126.9 80.4T145.8 75.6Q176.1 75.6 195 100.5T214.2 162.9Q214.2 177 208.5 190.2T192.3 213.3T166.8 229.5T133.8 235.8Q116.4 235.8 101.1 231T75.6 218.1T57.6 199.8T46.5 178.5T42.9 156.3Q42.9 139.2 49.5 126T69 107.7Q71.1 106.8 72.9 107.7T75.3 110.7Q77.1 118.2 78 121.2Q78.9 124.8 75.9 128.1Q67.5 138.6 67.5 153.3Q67.5 178.2 84.9 196.2T130.2 213.9Q155.1 213.9 169.2 200.4T183.3 165.3Q183.3 137.1 171.9 117.3T142.8 97.5Q132.9 97.5 126.6 105T122.7 122.1Q124.2 127.8 127.2 137.7T132 154.8T133.8 167.4Q133.8 175.5 129.6 180.9T117 186.3Q106.8 186.3 99.6 177T92.4 153.6Q92.4 141.6 96.3 133.2L80.1 63.9Q75.9 47.1 78.9 21.3H48.3Q28.2 21.3 14.1 35.7T0 69.6V230.4Q0 250.2 14.1 264.3T48.3 278.7H208.8z" />
    <glyph glyph-name="b-pinterest"
      unicode="&#xF120;"
      horiz-adv-x="214.29" d="M0 200.1Q0 218.1 6.3 234T23.7 261.9T49.2 282.6T80.1 295.8T114 300Q140.4 300 163.2 288.9T200.1 256.5T214.2 208.5Q214.2 192.3 211.2 177T201 147.3T184.2 122.4T160.2 105T128.4 98.7Q117 98.7 105.9 104.1T89.7 118.8Q88.2 112.2 85.2 99.9T81 84T77.7 72T73.2 60.3T68.1 49.8T60.3 36.6T49.8 22.2L47.7 21.3L46.2 23.1Q43.5 49.5 43.5 54.6Q43.5 69.9 47.1 89.1T58.2 137.4T66.9 171.3Q61.5 182.1 61.5 199.5Q61.5 213.6 70.2 225.6T92.4 237.9Q102.6 237.9 108.3 231T114 213.9Q114 202.8 106.8 182.1T99.3 150.6Q99.3 140.1 106.8 133.2T125.1 126.3Q134.4 126.3 142.2 130.5T155.4 141.9T164.7 157.8T171 176.1T174.3 194.7T175.5 211.5Q175.5 240.3 157.2 256.5T109.2 272.7Q75.9 272.7 53.4 251.1T30.9 196.2Q30.9 188.7 33 181.8T37.5 171T42 163.2T44.1 158.1Q44.1 153.6 41.7 146.1T35.4 138.6Q35.1 138.6 32.7 138.9Q24 141.6 17.4 148.2T7.2 164.1T1.8 182.1T0 200.1z" />
    <glyph glyph-name="b-reddit-alien"
      unicode="&#xF121;"
      horiz-adv-x="300" d="M300 158.4Q300 148.8 295.2 140.7T281.7 128.7Q283.8 120.9 283.8 112.5Q283.8 86.7 265.8 64.5T217.2 29.4T150.3 16.8T83.4 29.4T34.8 64.5T17.1 112.5Q17.1 120.3 18.9 128.4Q10.5 132.3 5.1 140.7T0 158.4Q0 172.2 9.6 181.8T33.3 191.7Q47.7 191.7 57.6 181.2Q94.2 206.7 143.7 208.2L163.2 295.5Q163.8 297.6 165.9 299.1T170.1 299.7L231.9 286.2Q234.9 292.5 240.9 296.1T254.1 300Q264.6 300 271.8 292.8T279.3 275.1T271.8 257.4T254.1 249.9T236.4 257.1T229.2 274.8L173.4 287.4L156 208.2Q206.1 206.7 242.7 181.5Q252.6 191.7 266.7 191.7Q280.5 191.7 290.4 181.8T300 158.4zM69.9 125.1Q69.9 114.6 77.4 107.4T94.8 99.9T112.8 107.4T120 125.1T112.8 142.8T94.8 150Q84.6 150 77.4 142.5T69.9 125.1zM205.5 65.7Q207.3 67.5 207.3 69.9T205.5 74.4Q204 75.9 201.3 75.9T197.1 74.4Q190.2 67.2 176.7 63.9T150 60.6T123.3 63.9T102.9 74.4Q101.1 75.9 98.7 75.9T94.5 74.4Q92.7 72.6 92.7 70.2T94.5 65.7Q101.7 58.5 114.3 54.3T134.7 49.2T150 48.6T165.3 49.2T185.7 54.3T205.5 65.7zM205.2 99.9Q215.4 99.9 222.9 107.4T230.1 125.1Q230.1 135.3 222.6 142.5T205.2 150Q194.7 150 187.2 142.8T180 125.1T187.2 107.4T205.2 99.9z" />
    <glyph glyph-name="b-reddit-squared"
      unicode="&#xF122;"
      horiz-adv-x="257.13" d="M157.2 111Q159.3 108.9 157.2 106.8Q148.2 97.8 128.7 97.8T99.9 106.8Q97.8 108.9 99.9 111Q100.8 111.9 102 111.9T104.4 111Q111.3 104.1 128.7 104.1T153 111Q153.6 111.9 155.1 111.9T157.2 111zM113.1 137.1Q113.1 132 109.2 128.1T100.2 124.2T91.2 128.1T87.3 137.1Q87.3 142.5 91.2 146.1T100.2 150T109.5 146.1T113.1 137.1zM169.8 137.1Q169.8 132 165.9 128.1T156.9 124.2T147.9 128.1T144 137.1Q144 142.5 147.9 146.1T156.9 150T165.9 146.1T169.8 137.1zM205.8 154.5Q205.8 161.4 200.7 166.5T188.4 171.3Q181.5 171.3 176.4 166.2Q157.5 179.4 131.7 180L140.7 220.8L169.2 214.2Q169.5 208.8 173.1 205.2T182.1 201.3Q187.5 201.3 191.4 205.2T195 214.2T191.4 223.5T182.1 227.1Q174 227.1 170.7 219.9L138.9 227.1Q136.2 228 135.6 224.7L125.4 180Q99.6 179.1 81 166.2Q75.9 171.3 68.7 171.3T56.4 166.5T51.3 154.5Q51.3 149.4 54 145.2T61.2 138.9Q60.3 134.7 60.3 130.8Q60.3 110.4 80.4 96T128.7 81.3Q157.2 81.3 177.3 96T197.4 130.8Q197.4 135 196.5 138.9Q200.7 141 203.1 145.2T205.8 154.5zM257.1 230.4V69.6Q257.1 49.8 243 35.7T208.8 21.3H48.3Q28.2 21.3 14.1 35.7T0 69.6V230.4Q0 250.2 14.1 264.3T48.3 278.7H208.8Q228.9 278.7 243 264.3T257.1 230.4z" />
    <glyph glyph-name="b-reddit"
      unicode="&#xF123;"
      horiz-adv-x="300" d="M183.3 104.7Q186 102 183.3 99.6Q173.1 89.1 150 89.1T116.7 99.6Q114 102 116.7 104.7Q117.6 105.6 119.1 105.6T121.8 104.7Q129.9 96.3 150 96.3T178.2 104.7Q179.4 105.6 180.9 105.6T183.3 104.7zM132 135Q132 128.7 127.5 124.5T117 120T106.5 124.5T102 135Q102 141.3 106.5 145.8T117 150T127.5 145.5T132 135zM198 135Q198 128.7 193.5 124.5T183 120T172.5 124.5T168 135T172.5 145.5T183 150T193.5 145.8T198 135zM240 155.1Q240 163.2 234.3 169.2T219.9 174.9T205.5 168.9Q183.9 183.9 153.6 185.1L164.1 232.5L197.7 224.7Q197.7 218.7 201.9 214.2T212.4 210T223.2 214.5T227.4 225T223.2 235.5T212.4 240Q203.4 240 199.2 231.6L162 240Q159 240.9 157.8 237.3L146.4 185.1Q116.1 183.9 94.5 168.9Q88.8 174.9 80.1 174.9Q71.7 174.9 65.7 169.2T60 155.1Q60 149.1 63 144.3T71.4 137.1Q70.2 132.3 70.2 127.5Q70.2 103.8 93.9 87T150.3 69.9Q183.3 69.9 206.7 87T230.1 127.5Q230.1 132.9 228.9 137.1Q234 139.5 237 144.3T240 155.1zM300 150Q300 119.4 288 91.8T256.2 43.8T208.2 12T150 0T91.8 12T43.8 43.8T12 91.8T0 150T12 208.2T43.8 256.2T91.8 288T150 300T208.2 288T256.2 256.2T288 208.2T300 150z" />
    <glyph glyph-name="b-skype-outline"
      unicode="&#xF124;"
      horiz-adv-x="281.4" d="M189.9 35.7Q214.5 35.7 232.2 54.3T250.2 98.1Q250.2 111.6 243.9 126.3Q246 138 246 149.1Q246 193.8 215.7 225.3Q185.7 256.5 142.2 256.5Q132.9 256.5 124.2 254.4Q109.2 264.3 91.5 264.3Q66.3 264.3 48.9 246T31.2 202.5Q31.2 184.8 39.9 170.4Q37.5 159.3 37.5 149.1Q37.5 105 68.4 72.9Q98.7 41.4 142.2 41.4Q147.3 41.4 161.4 43.2Q174 35.7 189.9 35.7zM80.4 118.8Q80.4 124.8 84.6 129T95.4 132.9Q106.2 132.9 110.7 120Q112.2 118.5 117 108.9Q123.9 99.6 140.7 99.6Q152.4 99.6 160.8 104.4T169.5 118.8Q169.5 123 168.3 126T162.9 130.8T157.2 133.8T149.4 136.5T142.2 138.3Q136.2 140.1 135.3 140.1Q119.7 143.4 107.7 148.8Q97.5 153 90.3 161.7T83.4 183.3Q83.4 204 99.9 214.2T141 224.4Q167.4 224.4 183 212.1Q196.2 199.8 196.2 188.4Q196.2 182.4 191.7 177.9T181.2 173.1Q177 173.1 174 174.9T169.8 178.5T165.9 184.8Q159 201 139.2 201Q129.3 201 121.8 196.8T114.3 186.3Q114.3 173.1 145.8 168Q148.8 167.4 168.9 162Q191.4 153.9 198.9 140.4Q202.5 132.6 202.5 121.5Q202.5 99 185.4 87T141.9 75.3Q102.9 75.3 87 99.3Q80.4 109.8 80.4 118.8zM91.5 295.5Q111.9 295.5 129.3 287.1Q137.7 288 142.2 288Q198.3 288 238.2 246.9Q277.5 205.8 277.5 149.1Q277.5 143.1 276 129.6Q281.4 114 281.4 98.1Q281.4 60 254.7 32.4Q227.7 4.8 189.9 4.8Q171.3 4.8 156 11.1Q150.3 10.2 142.2 10.2Q85.8 10.2 45.9 51.3Q6 92.1 6 149.1Q6 156.9 7.2 165.6Q0 182.1 0 202.5Q0 240.6 26.4 267.6Q53.4 295.5 91.5 295.5z" />
    <glyph glyph-name="b-skype"
      unicode="&#xF125;"
      horiz-adv-x="257.13" d="M196.5 122.1Q196.5 130.5 193.2 137.4T185.1 148.8T172.8 156.9T159 162.6T144.3 166.5L126.9 170.7Q121.8 171.9 119.4 172.5T113.7 174.3T108.6 177T105.9 180.6T104.7 185.4Q104.7 198.3 128.7 198.3Q135.9 198.3 141.6 196.5T150.6 191.7T156.9 186T163.8 181.2T171.9 179.1Q179.7 179.1 184.5 184.5T189.3 197.4Q189.3 206.7 179.7 213.9T156 225.3T125.7 229.2Q114.3 229.2 103.5 226.5T83.4 218.7T68.7 204.3T63 182.7Q63 172.5 66 164.7T75.6 152.1T88.8 144T106.2 138.6L130.5 132.6Q145.8 129 149.4 126.6Q154.8 123.3 154.8 116.4Q154.8 110.1 147.9 105.6T130.5 101.4Q121.8 101.4 115.2 104.1T104.1 110.7T96.6 118.2T88.8 124.5T79.8 127.2Q71.4 127.2 67.2 122.1T63 109.8Q63 94.2 83.4 83.4T132 72.3Q144.3 72.3 155.4 75.3T176.1 84.3T190.8 99.9T196.5 122.1zM257.1 85.8Q257.1 59.1 238.2 40.2T192.9 21.3Q171 21.3 153.6 34.8Q140.7 32.1 128.7 32.1Q104.7 32.1 82.8 41.4T45 66.6T20.1 104.1T10.8 150Q10.8 162.3 13.5 175.2Q0 192.6 0 214.2Q0 240.9 18.9 259.8T64.2 278.7Q86.1 278.7 103.5 265.2Q116.4 267.9 128.7 267.9Q152.4 267.9 174.3 258.6T212.1 233.4T237.3 195.9T246.3 150Q246.3 137.7 243.9 124.8Q257.1 107.4 257.1 85.8z" />
    <glyph glyph-name="b-soundcloud-1"
      unicode="&#xF126;"
      horiz-adv-x="300" d="M10.2 98.4Q10.2 97.2 7.2 97.2Q5.4 97.2 4.2 98.4L0 119.4L4.2 141Q5.4 142.2 7.2 142.2Q10.2 142.2 10.2 141L15 119.4zM40.8 87Q40.8 84.6 37.2 84.6T33.6 87L30 119.4L33.6 169.2Q33.6 171.6 37.2 171.6T40.8 169.2L45 119.4zM71.4 87.6Q71.4 84.6 67.2 84.6T63 87L60 119.4L63 186Q63 189 67.2 189T71.4 186L75 119.4zM102 87.6Q102 84.6 97.2 84.6T92.4 87.6L90 119.4L92.4 186.6Q92.4 189.6 97.2 189.6T102 186.6L105 119.4zM132.6 88.2Q132.6 84.6 127.2 84.6Q122.4 84.6 121.8 88.2L120 119.4L121.8 196.2Q123 200.4 127.2 200.4Q132.6 200.4 132.6 196.2L135 119.4zM154.2 84.6Q150 84.6 150 88.8V207.6Q150 210.6 153.6 211.8Q164.4 216 178.8 216Q205.2 216 224.7 198.6T246.6 156Q253.8 159 261.6 159Q277.2 159 288.6 147.9T300 121.8Q300 106.2 288.6 95.1T261.6 84z" />
    <glyph glyph-name="b-soundcloud"
      unicode="&#xF127;"
      horiz-adv-x="385.71" d="M131.4 70.2L133.8 110.7L131.4 198.3Q131.1 199.8 129.9 201T127.2 202.2Q125.7 202.2 124.5 201T123.3 198.3L121.2 110.7L123.3 70.2Q123.6 68.7 124.8 67.5T127.2 66.6Q130.8 66.6 131.4 70.2zM180.9 75.3L182.7 110.4L180.6 208.5Q180.6 211.2 178.5 212.7Q177 213.6 175.8 213.6T173.1 212.7Q171 211.2 171 208.5L170.7 207.6L169.2 110.7Q169.2 110.4 171 71.1Q171 69.3 171.9 68.1Q173.4 66.3 175.8 66.3Q177.6 66.3 179.1 67.8Q180.6 69 180.6 71.1zM6 132L9.3 110.7L6 89.7Q5.4 88.2 4.5 88.2T3 89.7L0 110.7L3 132Q3.3 133.5 4.5 133.5T6 132zM20.4 145.2L24.6 110.7L20.4 76.8Q19.8 75.3 18.6 75.3Q17.1 75.3 17.1 76.8L13.2 110.7L17.1 145.2Q17.1 146.7 18.6 146.7Q19.8 146.7 20.4 145.2zM67.2 69.6zM35.7 151.8L39.9 110.7L35.7 71.1Q35.7 69.3 33.9 69.3T31.8 71.1L28.2 110.7L31.8 151.8Q32.1 153.6 33.9 153.6T35.7 151.8zM51.3 153L55.2 110.7L51.3 69.9Q51 67.5 49.2 67.5Q46.8 67.5 46.8 69.9L43.5 110.7L46.8 153Q46.8 155.1 49.2 155.1Q51 155.1 51.3 153zM67.2 149.7L70.8 110.7L67.2 69.6Q66.9 66.9 64.5 66.9Q63.6 66.9 62.7 67.5T62.1 69.6L58.5 110.7L62.1 149.7Q62.1 150.9 62.7 151.5T64.5 152.4Q66.9 152.4 67.2 149.7zM131.4 70.2zM82.8 174.3L86.4 110.7L82.8 69.6Q82.8 68.4 81.9 67.5T80.1 66.6Q77.4 66.6 77.1 69.6L74.1 110.7L77.1 174.3Q77.4 177.3 80.1 177.3Q81.3 177.3 81.9 176.4T82.8 174.3zM98.7 188.7L101.7 110.4L98.7 69.6Q98.7 68.1 97.8 67.2T95.4 66.3Q92.4 66.3 92.1 69.6L89.4 110.4L92.1 188.7Q92.4 192 95.4 192Q96.9 192 97.8 190.8T98.7 188.7zM114.9 195.3L117.9 110.7L114.9 70.2Q114.6 66.6 111.3 66.6Q108.3 66.6 107.7 70.2L105 110.7L107.7 195.3Q107.7 196.8 108.9 198T111.3 199.2Q112.8 199.2 114 198T114.9 195.3zM180.6 71.1zM147.6 196.2L150 110.7L147.6 70.8Q147.6 69 146.1 67.8T143.4 66.6T140.4 67.5T139.2 70.8L136.8 110.7L139.2 196.2Q139.2 198 140.4 199.2T143.4 200.1T146.1 199.2T147.6 196.2zM164.1 192.9L166.5 110.4L164.1 71.1Q164.1 69.3 162.6 67.8T159.6 66.6T156.3 67.8T154.8 71.1L153 110.4L154.8 192.9Q155.1 195 156.3 196.2T159.6 197.7T162.6 196.2T164.1 192.9zM199.5 110.4L197.1 71.7Q197.1 69.6 195.6 68.1T192 66.6T188.4 68.1T186.6 71.7L185.7 90.9L184.8 110.4L186.6 216.9V217.5Q186.9 219.9 188.7 221.4Q190.2 222.6 192 222.6Q193.5 222.6 194.4 221.7Q196.8 220.5 197.1 217.5zM385.8 113.7Q385.8 94.2 371.7 80.4T338.4 66.6H206.7Q204.6 66.9 203.1 68.4T201.6 72V222.6Q201.6 226.5 206.4 228Q220.5 233.7 236.7 233.7Q269.1 233.7 293.1 211.8T319.8 157.5Q328.8 161.1 338.4 161.1Q357.9 161.1 371.7 147.3T385.8 113.7z" />
    <glyph glyph-name="b-spotify-1"
      unicode="&#xF128;"
      horiz-adv-x="257.13" d="M188.7 97.5Q188.7 102.9 183.6 105.9Q151.5 125.1 108.9 125.1Q86.7 125.1 60.9 119.4Q53.7 117.9 53.7 110.7Q53.7 107.4 56.1 105T62.1 102.6Q62.7 102.6 68.1 104.1Q90.3 108.6 108.9 108.6Q146.7 108.6 175.2 91.2Q178.5 89.4 180.9 89.4Q183.9 89.4 186.3 91.8T188.7 97.5zM204.9 133.5Q204.9 140.1 198.9 143.7Q159.3 167.4 107.1 167.4Q81.6 167.4 56.4 160.2Q48.3 158.1 48.3 149.4Q48.3 145.2 51.3 142.5T58.5 139.5Q59.7 139.5 64.5 140.7Q85.2 146.4 106.8 146.4Q153.3 146.4 188.4 125.7Q192.3 123.3 194.7 123.3Q198.9 123.3 201.9 126.3T204.9 133.5zM222.9 174.9Q222.9 182.7 216 186.6Q195 198.9 167.1 205.2T109.8 211.5Q75.6 211.5 48.6 203.7Q45 202.5 42.3 199.2T39.6 191.1Q39.6 186 43.2 182.4T51.6 179.1Q53.7 179.1 58.5 180.3Q80.7 186.6 109.8 186.6Q136.5 186.6 161.7 180.9T204 165Q207.6 162.9 210.9 162.9Q215.7 162.9 219.3 166.2T222.9 174.9zM257.1 150Q257.1 114.9 240 85.5T193.2 38.7T128.7 21.3T63.9 38.7T17.4 85.5T0 150T17.4 214.5T63.9 261.3T128.7 278.7T193.2 261.3T240 214.5T257.1 150z" />
    <glyph glyph-name="b-spotify"
      unicode="&#xF129;"
      horiz-adv-x="264" d="M132 282Q186.6 282 225.3 243.3T264 150Q264 117 248.7 88.5T207 41.4Q177 92.4 114 94.2Q65.4 96 32.4 63Q0 100.2 0 150Q0 205.2 38.4 243.6T132 282zM196.2 103.2Q201 109.8 193.8 114.6Q142.2 146.4 67.2 129Q59.4 126.6 61.2 119.4Q63 111.6 70.8 112.8Q139.2 129 185.4 100.8Q192 96.6 196.2 103.2zM212.4 140.4Q217.8 149.4 208.8 154.8Q178.8 173.4 138.3 177.9T63 172.2Q53.4 169.2 55.8 159Q59.4 149.4 68.4 152.4Q99.6 162 135.9 157.8T198.6 137.4Q207 131.4 212.4 140.4zM213.6 179.4Q223.8 173.4 230.4 183.6Q236.4 193.8 226.2 200.4Q191.4 220.8 139.8 225T55.2 217.8Q51 216.6 48.6 212.1T47.4 202.8Q50.4 191.4 62.4 194.4Q90.6 204.6 137.1 201T213.6 179.4zM112.8 55.2Q148.8 53.4 164.4 22.2Q145.2 18 132 18Q97.8 18 67.8 34.8Q85.2 56.4 112.8 55.2z" />
    <glyph glyph-name="b-telegram"
      unicode="&#xF12A;"
      horiz-adv-x="300" d="M199.2 81.3L223.8 197.1Q225.3 204.6 222 207.9T213.3 208.8L68.7 153.3Q63.9 151.5 62.1 149.1T61.5 144.6T66.9 141.3L104.1 129.9L189.9 183.9Q193.5 186.3 195.3 184.8Q196.5 183.9 194.4 182.4L125.1 119.4L122.4 81.3Q126.3 81.3 129.9 85.2L147.9 102.6L185.4 74.7Q196.2 68.7 199.2 81.3zM300 150Q300 119.4 288 91.8T256.2 43.8T208.2 12T150 0T91.8 12T43.8 43.8T12 91.8T0 150T12 208.2T43.8 256.2T91.8 288T150 300T208.2 288T256.2 256.2T288 208.2T300 150z" />
    <glyph glyph-name="b-tumblr-squared"
      unicode="&#xF12B;"
      horiz-adv-x="257.13" d="M190.2 55.5L179.7 86.1Q172.5 82.5 162.6 82.5Q156.6 82.2 152.1 84T145.8 89.4T142.8 96.3T141.9 103.5V170.1H185.1V202.5H142.2V257.1H110.7Q109.2 257.1 109.2 255.6Q108.3 248.1 106.2 240.9T99.6 225T86.7 209.1T66.9 197.7V170.1H88.8V100.2Q88.8 90.6 92.4 81T103.2 62.4T123.6 48T153 42.9Q164.7 42.9 175.8 47.1T190.2 55.5zM257.1 230.4V69.6Q257.1 49.8 243 35.7T208.8 21.3H48.3Q28.2 21.3 14.1 35.7T0 69.6V230.4Q0 250.2 14.1 264.3T48.3 278.7H208.8Q228.9 278.7 243 264.3T257.1 230.4z" />
    <glyph glyph-name="b-tumblr"
      unicode="&#xF12C;"
      horiz-adv-x="171.42" d="M158.1 77.4L171.3 37.8Q167.7 32.1 153 26.7T123.3 21.3Q105.9 21 91.2 25.8T67.5 38.1T51.6 55.8T42.3 75.9T39.6 95.7V186.9H11.4V222.9Q23.4 227.1 33 234.6T48.3 249.6T57.9 266.7T63.6 283.2T66 297.9Q66.3 298.8 66.9 299.4T68.1 300H108.9V228.9H164.7V186.9H108.9V100.2Q108.9 95.1 109.8 90.9T113.7 81.9T122.1 75T135.6 72.6Q148.8 72.9 158.1 77.4z" />
    <glyph glyph-name="b-twitter-circled"
      unicode="&#xF12D;"
      horiz-adv-x="288" d="M144 294Q204 294 246 252T288 150Q288 90.6 246 48.3T144 6Q84.6 6 42.3 48.3T0 150Q0 210 42.3 252T144 294zM202.8 176.4Q211.8 183 216.6 190.8Q207 187.2 200.4 186.6Q209.4 192 213 202.2Q204 197.4 195 195.6Q186.6 204 174 204Q162 204 153.9 195.6T145.8 175.8Q145.8 175.2 146.1 172.8T146.4 169.2Q110.4 171 88.2 199.2Q84 192 84 184.8Q84 169.8 97.2 161.4Q89.4 161.4 84 165V164.4Q84 154.2 90.3 146.4T106.8 136.8Q102 135.6 99.6 135.6Q96 135.6 94.2 136.2Q100.2 116.4 120.6 116.4Q105.6 104.4 85.2 104.4H78.6Q99 91.8 121.8 91.8Q158.4 91.8 180.6 116.7T202.8 172.8V176.4z" />
    <glyph glyph-name="b-twitter-squared"
      unicode="&#xF12E;"
      horiz-adv-x="257.13" d="M214.2 198Q204.9 193.8 194.1 192.3Q205.5 198.9 209.7 211.8Q198.6 205.5 187.2 203.4Q177 214.2 161.7 214.2Q147 214.2 136.8 204T126.3 179.1Q126.3 174.3 127.2 171Q105.6 172.2 86.7 182.1T54.6 207.9Q49.8 199.5 49.8 190.2Q49.8 171 65.1 160.8Q57 161.1 48.3 165.3V165Q48.3 152.4 56.7 142.5T77.1 130.5Q72.3 129 68.7 129Q66.6 129 62.1 129.9Q65.7 119.1 74.7 112.2T94.8 105.3Q75.6 90.3 51.3 90.3Q46.8 90.3 42.9 90.9Q67.5 75 96.9 75Q115.5 75 132 81T160.2 96.9T180.3 119.7T192.9 147T196.8 175.2V179.7Q207.3 187.2 214.2 198zM257.1 230.4V69.6Q257.1 49.8 243 35.7T208.8 21.3H48.3Q28.2 21.3 14.1 35.7T0 69.6V230.4Q0 250.2 14.1 264.3T48.3 278.7H208.8Q228.9 278.7 243 264.3T257.1 230.4z" />
    <glyph glyph-name="b-twitter"
      unicode="&#xF12F;"
      horiz-adv-x="278.58" d="M271.2 231.6Q260.1 215.4 244.2 203.7V196.8Q244.2 174.9 237.9 153.3T218.7 111.6T187.8 76.5T144.6 51.9T90.3 42.9Q45 42.9 7.5 67.2Q13.2 66.6 20.4 66.6Q58.2 66.6 87.6 89.7Q69.9 90 56.1 100.5T36.9 127.2Q42.6 126.3 47.1 126.3Q54.3 126.3 61.5 128.1Q42.6 132 30.3 146.7T18 181.2V181.8Q29.4 175.5 42.6 174.9Q31.5 182.4 24.9 194.1T18.3 219.9Q18.3 234.6 25.8 247.2Q46.2 222.3 75 207.3T137.4 190.8Q135.9 197.1 135.9 203.1Q135.9 225.6 151.8 241.2T189.9 257.1Q213.6 257.1 229.5 240Q247.8 243.6 264 253.2Q257.7 234 240 223.2Q255.6 225 271.2 231.6z" />
    <glyph glyph-name="b-vimeo-circled"
      unicode="&#xF130;"
      horiz-adv-x="288" d="M144 294Q204 294 246 252T288 150Q288 90.6 246 48.3T144 6Q84.6 6 42.3 48.3T0 150Q0 210 42.3 252T144 294zM210 178.2Q214.2 202.8 195.6 206.4Q177.6 210.6 162.6 194.4Q154.2 186 152.4 174.6Q163.8 181.8 169.2 174.3T168.6 155.4Q155.4 130.2 149.4 130.2Q145.2 130.2 138.6 158.4Q137.4 162.6 136.2 170.4T133.8 183.9T130.2 195.6T124.2 204.3T115.2 205.8Q107.4 204 97.2 196.2T80.4 181.2L74.4 174L79.8 166.8Q81 168 82.8 169.2T89.4 172.2T95.4 171.6Q97.2 169.2 106.5 137.7T118.2 101.4Q122.4 93 129.6 88.5T147 88.8Q163.2 99.6 184.2 124.8T210 178.2z" />
    <glyph glyph-name="b-vimeo-squared"
      unicode="&#xF131;"
      horiz-adv-x="257.13" d="M216.3 193.2Q218.1 229.5 189.3 230.4Q150.6 231.6 137.1 186.6Q144.6 189.9 150.9 189.9Q165 189.9 163.2 173.7Q162.6 164.1 150.9 145.8T133.2 127.5Q126 127.5 119.4 155.7Q117.3 164.7 111.9 198.3Q107.1 230.1 85.2 228Q75.3 226.8 57.9 211.2L44.1 199.2L30.6 187.2L39.3 176.1Q52.2 184.8 54 184.8Q63.6 184.8 71.7 154.8Q74.4 145.5 79.5 127.2T87 99.6Q98.4 69.6 114.3 69.6Q140.7 69.6 178.5 118.8Q215.4 166.2 216.3 193.2zM257.1 230.4V69.6Q257.1 49.8 243 35.7T208.8 21.3H48.3Q28.2 21.3 14.1 35.7T0 69.6V230.4Q0 250.2 14.1 264.3T48.3 278.7H208.8Q228.9 278.7 243 264.3T257.1 230.4z" />
    <glyph glyph-name="b-vimeo"
      unicode="&#xF132;"
      horiz-adv-x="300" d="M286.2 213.3Q284.4 173.7 230.4 104.4Q174.9 32.1 136.5 32.1Q112.8 32.1 96.3 76.2Q88.8 102.9 74.1 156.9Q62.1 200.7 48 200.7Q45 200.7 26.7 188.1L13.8 204.3Q17.7 207.9 31.8 220.5T53.7 240Q79.8 263.1 93.9 264.3Q109.8 265.8 119.4 255T133.2 221.1Q140.4 173.1 144.3 158.7Q153.3 117 164.1 117Q172.8 117 189.9 143.7Q207 170.7 208.2 185.1Q210.6 208.2 189.9 208.2Q180.6 208.2 169.8 204Q189.9 269.7 246.6 267.9Q288.6 266.4 286.2 213.3z" />
    <glyph glyph-name="b-vine"
      unicode="&#xF133;"
      horiz-adv-x="257.13" d="M250.5 161.7V128.4Q233.7 124.5 217.5 124.5Q206.7 101.7 189.9 79.2T159.3 43.2T138 25.2Q124.5 17.7 110.7 25.8Q106.2 28.5 100.8 33T86.4 47.1T69.3 68.7T51.3 99.3T33.6 140.1T18.3 192.9T6.6 258.3H54Q58.2 221.7 65.7 191.4T83.1 138.3T103.5 99T126.9 66.3Q155.1 94.5 174.9 134.4Q151.2 146.4 137.7 171T124.2 226.8Q124.2 258.9 141.6 279.6T189 300Q218.7 300 234.6 282.3T250.5 232.5Q250.5 205.8 240.9 184.8Q239.7 184.5 237.6 184.2T230.1 183.9T219.3 184.8T209.1 189T200.7 197.7Q205.8 215.1 205.8 228.6Q205.8 243 201 250.5T187.8 258.3Q178.8 258.3 173.4 249.9T168 226.5Q168 195.3 185.7 177.3T230.4 159.3Q240.9 159.3 250.5 161.7z" />
    <glyph glyph-name="b-vkontakte"
      unicode="&#xF134;"
      horiz-adv-x="321.42" d="M321 228.5257095336914Q324.9 217.7257095336914 295.8 179.3257095336914Q291.9 173.9257095336914 285 164.9257095336914Q278.4 156.5257095336914 275.7 152.9257095336914T270.6 144.8257095336914T268.5 137.6257095336914T270.9 131.9257095336914T276.3 124.7257095336914T285.9 115.7257095336914Q286.5 115.4257095336914 286.5 115.1257095336914Q310.2 93.2257095336914 318.6 78.2257095336914Q319.2 77.3257095336914 319.8 76.1257095336914T321 71.6257095336914T320.7 65.9257095336914T316.5 61.4257095336914T306.6 59.3257095336914L264 58.4257095336914Q259.8 57.8257095336914 254.4 59.3257095336914T245.7 63.2257095336914L242.4 65.0257095336914Q237.3 68.6257095336914 230.7 75.8257095336914T219.3 88.7257095336914T209.1 98.6257095336914T199.5 101.0257095336914Q199.2 101.0257095336914 198.3 100.4257095336914T195.3 98.0257095336914T191.7 93.2257095336914T189 84.5257095336914T187.8 71.3257095336914Q187.8 68.9257095336914 187.2 66.8257095336914T186 63.8257095336914L185.4 62.9257095336914Q182.4 59.6257095336914 176.4 59.3257095336914H157.2Q145.2 58.4257095336914 132.9 62.0257095336914T110.7 70.7257095336914T93.6 81.8257095336914T81.6 91.4257095336914L77.4 95.6257095336914Q75.9 97.1257095336914 72.9 100.7257095336914T60.9 115.7257095336914T43.2 141.2257095336914T22.8 176.3257095336914T0.9 221.9257095336914Q-0.3 224.6257095336914 -0.3 226.4257095336914T0.3 229.1257095336914L0.9 230.0257095336914Q3.6 233.3257095336914 10.5 233.3257095336914L56.4 233.6257095336914Q58.5 233.3257095336914 60.3 232.7257095336915T63 231.2257095336915L63.9 230.6257095336914Q66.6 228.8257095336914 67.8 225.2257095336915Q71.1 216.8257095336914 75.6 208.1257095336914T82.5 194.3257095336914L85.2 189.5257095336914Q90 179.3257095336914 94.5 172.1257095336914T102.6 160.7257095336914T109.5 154.1257095336914T115.2 151.7257095336914T119.7 152.6257095336914L120.6 153.5257095336914Q121.2 154.1257095336914 122.7 157.1257095336914T124.8 164.9257095336914T126.3 178.7257095336914T126.3 199.4257095336914Q126 206.3257095336914 124.8 211.7257095336914T122.7 219.5257095336914L121.5 221.3257095336914Q117.3 227.0257095336914 107.4 228.5257095336914Q105 229.1257095336914 108.3 232.7257095336915Q110.7 235.7257095336915 114.6 237.8257095336914Q123.3 242.0257095336914 154.5 241.7257095336914Q168.3 241.4257095336914 177 239.6257095336914Q180.6 238.7257095336914 182.7 237.2257095336914T186.3 233.3257095336914T187.8 227.9257095336914T188.4 220.4257095336914T188.4 211.1257095336914T187.8 199.1257095336914T187.8 185.3257095336914Q187.8 183.5257095336914 187.5 178.4257095336914T187.5 170.3257095336914T188.1 163.7257095336914T189.9 157.1257095336914T193.8 152.9257095336914Q195 152.6257095336914 196.5 152.3257095336914T201 154.1257095336914T207.3 159.8257095336914T216 171.2257095336914T227.4 189.2257095336914Q237.3 206.6257095336914 245.4 226.7257095336915Q246 228.5257095336914 246.9 229.7257095336915T248.7 231.5257095336914L249.6 232.1257095336914L250.2 232.4257095336914L252.6 233.0257095336914H255.9L303.9 233.3257095336914Q310.5 234.2257095336915 314.7 233.0257095336914T319.8 230.0257095336914z" />
    <glyph glyph-name="b-whatsapp"
      unicode="&#xF135;"
      horiz-adv-x="257.13" d="M165 137.1Q167.1 137.1 181.2 129.6T196.2 120.6Q196.5 120 196.5 118.2Q196.5 112.8 193.8 105.6Q191.1 99 181.8 94.5T164.7 90Q155.1 90 132.9 100.5Q116.4 108 104.4 120.3T79.8 151.2Q67.5 169.2 67.8 183.6V185.1Q68.4 200.1 80.1 211.5Q84.3 215.1 88.8 215.1Q90 215.1 91.8 214.8T95.1 214.5Q98.4 214.5 99.6 213.6T102 208.8Q103.5 205.5 107.7 194.1T111.9 181.8Q111.9 178.2 106.2 171.9T100.2 164.1Q100.2 163.2 101.1 161.7Q106.8 149.4 118.2 138.9Q127.5 129.9 143.4 121.8Q145.5 120.6 147.3 120.6Q149.7 120.6 156.3 128.7T165 137.1zM130.8 48.3Q152.1 48.3 171.6 56.7T205.2 78.9T227.7 112.5T236.1 153.3T227.7 194.1T205.2 227.7T171.6 250.2T130.8 258.6T90.3 250.2T56.7 227.7T34.2 194.1T25.8 153.3Q25.8 119.4 45.9 91.8L32.7 52.8L73.2 65.7Q99.6 48.3 130.8 48.3zM130.8 279.6Q156.6 279.6 180 269.4T220.2 242.7T247.2 202.2T257.1 153.3T247.2 104.4T220.2 64.2T180 37.2T130.8 27Q98.4 27 69.9 42.9L0 20.4L22.8 88.2Q4.8 117.9 4.8 153.3Q4.8 179.1 14.7 202.2T41.7 242.7T81.9 269.4T130.8 279.6z" />
    <glyph glyph-name="b-wordpress"
      unicode="&#xF136;"
      horiz-adv-x="300" d="M21.3 150Q21.3 177.3 32.4 202.5L93.9 34.2Q61.2 50.1 41.1 81.3T21.3 150zM237 156.6Q237 153.3 236.4 150T234.9 141.9T232.8 134.4T230.1 124.5T227.1 114.9L214.2 72L167.7 210.3Q175.5 210.9 182.4 211.5Q185.7 212.1 186.9 214.8T186.3 219.9T181.8 222.3L147.3 220.5Q134.7 220.8 113.4 222.3Q111.6 222.3 110.1 221.4T108.3 218.7T108 215.7T109.5 213T112.8 211.5L126 210.3L146.1 155.4L117.9 71.1L71.1 210.3Q78.9 210.9 85.8 211.5Q89.1 212.1 90.3 214.8T89.7 219.9T85.2 222.3L50.7 220.5H46.8Q44.1 220.5 42.6 220.8Q60 247.5 88.5 263.1T150 278.7Q174.6 278.7 197.1 270T237 244.8H235.2Q225.9 244.8 219.9 238.2T213.6 222.3Q213.6 220.2 213.9 218.1T214.5 214.5T216 210.6T217.5 207.3T219.6 203.4T221.7 199.8T224.1 195.9T226.5 192Q237 174 237 156.6zM152.1 138.9L192 30.6Q192 29.4 192.6 28.5Q171.6 21.3 150 21.3Q131.4 21.3 113.7 26.7zM262.8 211.8Q278.7 182.7 278.7 150Q278.7 114.9 261.3 85.5T214.5 38.7L254.1 152.4Q264 180.6 264 198.6Q264 205.5 262.8 211.8zM150 300Q180.6 300 208.2 288T256.2 256.2T288 208.2T300 150T288 91.8T256.2 43.8T208.2 12T150 0T91.8 12T43.8 43.8T12 91.8T0 150T12 208.2T43.8 256.2T91.8 288T150 300zM150 6.9Q179.1 6.9 205.5 18.3T251.1 48.9T281.7 94.5T293.1 150T281.7 205.5T251.1 251.1T205.5 281.7T150 293.1T94.5 281.7T48.9 251.1T18.3 205.5T6.9 150T18.3 94.5T48.9 48.9T94.5 18.3T150 6.9z" />
    <glyph glyph-name="b-yahoo-1"
      unicode="&#xF137;"
      horiz-adv-x="412.5" d="M0 237.3L1.8 231.6Q3 229.8 4.2 228.6T5.7 227.1L6.3 226.5L12 223.5H45.3L131.4 120.3Q134.7 116.7 134.7 112.8V55.2Q134.7 52.8 134.1 51.6T132.3 50.1H131.4Q97.8 50.1 88.8 49.2Q85.8 49.2 85.8 46.5V30H240.6V47.1Q240.6 48 240 48.6T238.5 49.2H194.7Q192 49.2 192 53.7V114.3Q191.7 115.2 192.6 116.4T194.1 118.5L195 119.4Q198.3 122.7 274.2 194.1H314.1Q316.8 194.1 319.5 196.2L324.6 201.9Q326.4 204 326.4 207.3V211.5Q326.1 212.4 325.5 213T324.6 213.3H193.2L191.1 211.5Q190.8 209.7 191.7 207.9T193.2 204.9L193.8 203.7L200.7 196.8L206.1 194.7H240.6L178.5 136.2L110.1 223.5H122.4Q126.3 223.2 129 224.7L149.4 231Q149.7 231 150.3 231.3T151.8 232.8T152.4 235.5V239.7Q152.4 240.6 151.8 241.2T150.6 241.8H3Q0.6 241.5 0 239.7V237.3zM357 270L412.5 267.9L387.6 97.8L369.3 98.7zM360.9 41.1L362.1 74.1L395.1 72.9L393.9 39.9z" />
    <glyph glyph-name="b-yahoo"
      unicode="&#xF138;"
      horiz-adv-x="257.13" d="M143.7 139.8L146.1 21.3Q135.6 23.4 128.4 23.4Q121.5 23.4 110.7 21.3L113.1 139.8Q106.2 151.5 84.9 189.3T48.6 252T18.3 300Q27.9 297.6 36.3 297.6Q43.8 297.6 54.9 300Q65.4 281.4 77.4 261.6T105.3 215.4T128.4 177.3Q134.7 187.5 146.7 207T166.5 238.8T183.9 268.2T201.9 300Q210.9 297.6 219.9 297.6Q229.2 297.6 238.8 300Q234.3 293.4 228.9 285.3T220.5 272.1T211.2 255.9T202.8 241.8Q178.5 200.4 143.7 139.8z" />
    <glyph glyph-name="b-yelp"
      unicode="&#xF139;"
      horiz-adv-x="257.13" d="M129.3 79.2V57.9Q129.3 9 128.4 6.9Q126.3 1.5 120 0.3Q110.7 -1.5 89.4 6.6T62.4 21.3Q60 24 59.4 27.3Q59.4 29.4 60 31.8Q60.9 33.6 65.7 39.6T96 75.9Q96.3 75.9 106.2 87.6Q108.6 90.9 112.8 91.8T121.2 91.2Q125.1 89.4 127.2 86.1T129.3 79.2zM104.4 121.2Q104.1 111.9 95.7 109.5L75.6 102.9Q29.7 88.2 26.7 88.2Q21 88.5 17.7 94.2Q15.9 98.4 15 106.8Q13.5 119.4 15 134.7T20.1 155.4T29.4 160.8Q31.8 160.8 63.3 147.9Q75.3 143.1 82.5 140.1L96.6 134.4Q100.5 132.9 102.6 129.3T104.4 121.2zM242.7 71.4Q241.5 62.4 227.4 44.4T204.9 23.4Q198.6 21 194.1 24.3Q192 26.1 163.5 72.6L155.4 85.5Q153.3 88.8 153.6 93T156.9 100.8Q162.6 108 170.7 105Q171 105 190.8 98.4Q224.7 87.3 231.3 85.2T239.1 81.6Q243.9 78 242.7 71.4zM130.2 177.3Q131.1 160.2 121.2 156.9Q111.6 153.9 102 168.9L39 268.8Q37.5 274.8 42 279.3Q48.9 286.5 76.8 294.3T114.3 299.4Q121.2 297.9 122.7 291.9Q123 288.9 126.3 240.9T130.2 177.3zM241.2 159.3Q241.5 152.7 236.7 149.4Q234.3 147.6 181.8 135Q170.4 132.3 166.5 131.1V131.4Q162.6 130.5 159 132T152.7 137.4Q147.6 145.2 152.7 152.1Q153 152.1 165.3 169.2L190.5 203.4Q194.7 209.1 196.2 209.7Q200.7 213 207 210Q215.1 206.4 227.4 187.8T241.2 159.6V159.3z" />
    <glyph glyph-name="b-youtube-play"
      unicode="&#xF13A;"
      horiz-adv-x="300" d="M119.1 111.3L200.1 153L119.1 195.3V111.3zM150 255.6Q178.2 255.6 204.3 254.7T242.7 253.2L255 252.6L257.7 252.3Q260.4 252 261.6 251.7T265.5 251.1T270.3 249.6T275.1 247.5T280.2 244.2T285 239.7Q286.2 238.8 287.7 236.7T292.5 226.8T297 210Q298.2 199.2 299.1 187.2T300 168V138.6Q300.3 114.3 297 90Q295.8 81 292.8 73.5T287.4 63L285 60.3Q282.9 57.9 280.2 55.8T275.1 52.8T270.3 50.7T265.5 49.2T261.6 48.6T257.7 48T255 47.7Q213 44.4 150 44.4Q115.5 45 89.7 45.6T56.4 46.8L48 47.7L42 48.3Q36 49.2 33 49.8T24.3 53.4T15 60.3Q13.8 61.2 12.3 63.3T7.5 73.2T3 90Q1.8 100.8 0.9 112.8T0 132V161.4Q-0.3 185.7 3 210Q4.2 219.3 7.2 226.5T12.6 237L15 239.7Q17.4 242.4 19.8 244.2T24.9 247.5T29.7 249.6T34.5 251.1T38.4 251.7T42.3 252.3T45 252.6Q87 255.6 150 255.6z" />
    <glyph glyph-name="b-youtube-squared"
      unicode="&#xF13B;"
      horiz-adv-x="257.13" d="M153.9 81.9V108.3Q153.9 116.4 149.1 116.4Q146.1 116.4 143.4 114V76.5Q146.1 73.8 149.1 73.8Q153.9 73.8 153.9 81.9zM184.8 102.3H195.6V108Q195.6 116.4 190.2 116.4T184.8 108V102.3zM89.1 146.7V135H75.6V64.2H63.3V135H50.1V146.7H89.1zM122.7 125.7V64.2H111.6V71.1Q105 63.6 98.7 63.6Q93.3 63.6 91.8 68.1Q90.9 71.1 90.9 77.1V125.7H101.7V80.4Q101.7 76.5 102 76.2Q102 73.8 104.4 73.8Q107.7 73.8 111.6 78.9V125.7H122.7zM165 107.1V82.8Q165 74.1 163.8 70.5Q161.7 63.6 154.8 63.6Q149.1 63.6 143.4 70.2V64.2H132.3V146.7H143.4V120Q148.8 126.6 154.8 126.6Q161.7 126.6 163.8 119.4Q165 116.1 165 107.1zM207 85.5V84Q207 79.2 206.7 76.8Q206.1 73.2 204 70.2Q199.5 63.6 190.8 63.6T177 69.9Q173.7 74.4 173.7 84.3V105.9Q173.7 115.8 177 120.3Q181.8 126.6 190.5 126.6T203.4 120.3Q207 115.5 207 105.9V93H184.8V82.2Q184.8 73.8 190.5 73.8Q194.4 73.8 195.3 78Q195.3 78.3 195.6 79.2T195.6 81.9V85.5H207zM131.4 223.5V197.4Q131.4 189 126 189T120.6 197.4V223.5Q120.6 232.2 126 232.2T131.4 223.5zM220.8 104.1Q220.8 133.8 217.5 147.6Q215.7 155.1 210.3 159.9T197.7 165.9Q174.9 168.3 128.7 168.3T59.7 165.9Q52.5 165 47.1 159.9T39.9 147.6Q36.6 133.2 36.6 104.1Q36.6 74.7 39.9 60.6Q41.4 53.4 47.1 48.3T59.7 42.6Q82.5 39.9 128.7 39.9T197.7 42.6Q204.9 43.2 210.3 48.3T217.2 60.6Q220.8 74.7 220.8 104.1zM94.2 213L109.2 262.8H96.9L88.2 230.1L79.5 262.8H66.3Q67.5 258.9 70.2 251.1L74.1 239.7Q80.1 222.3 81.9 213V179.4H94.2V213zM142.5 199.5V221.4Q142.5 231 139.2 235.8Q134.4 242.4 126 242.4T113.1 235.8Q109.5 231 109.5 221.4V199.5Q109.5 189.9 113.1 185.1Q117.6 178.5 126 178.5T139.2 185.1Q142.5 189.6 142.5 199.5zM173.1 179.4H184.2V241.5H173.1V194.1Q169.2 189 165.9 189Q163.5 189 163.2 191.4V241.5H151.8V192.3Q151.8 186.3 153 183.3Q154.8 178.5 160.2 178.5Q166.2 178.5 173.1 186.3V179.4zM257.1 230.4V69.6Q257.1 49.8 243 35.7T208.8 21.3H48.3Q28.2 21.3 14.1 35.7T0 69.6V230.4Q0 250.2 14.1 264.3T48.3 278.7H208.8Q228.9 278.7 243 264.3T257.1 230.4z" />
    <glyph glyph-name="b-youtube"
      unicode="&#xF13C;"
      horiz-adv-x="257.13" d="M162.6 91.8V56.4Q162.6 45.3 156 45.3Q152.1 45.3 148.5 48.9V99.3Q152.1 102.9 156 102.9Q162.6 102.9 162.6 91.8zM219.3 91.5V84H204V91.5Q204 102.9 211.5 102.9T219.3 91.5zM57.3 128.1H75.3V143.7H23.1V128.1H40.8V32.7H57.3V128.1zM105.6 32.7H120.6V115.5H105.6V52.2Q100.5 45.3 96 45.3Q93 45.3 92.7 48.6Q92.4 49.2 92.4 54.6V115.5H77.4V50.1Q77.4 41.7 78.9 37.8Q81 31.5 88.5 31.5Q96.6 31.5 105.6 41.7V32.7zM177.6 57.6V90.6Q177.6 102.9 176.1 107.1Q173.1 116.4 164.1 116.4Q155.7 116.4 148.5 107.4V143.7H133.5V32.7H148.5V40.8Q156 31.5 164.1 31.5Q173.1 31.5 176.1 40.8Q177.6 45.3 177.6 57.6zM234 59.4V61.5H218.7Q218.7 52.8 218.4 51.3Q217.2 45.3 211.8 45.3Q204 45.3 204 56.7V71.4H234V88.5Q234 101.7 229.5 108Q222.9 116.4 211.8 116.4Q200.4 116.4 193.8 108Q189.3 101.7 189.3 88.5V59.7Q189.3 46.5 194.1 40.2Q200.7 31.5 212.1 31.5Q224.1 31.5 230.1 40.5Q233.1 45 233.7 49.5Q234 51 234 59.4zM132.3 212.1V247.2Q132.3 258.9 125.1 258.9T117.9 247.2V212.1Q117.9 200.4 125.1 200.4T132.3 212.1zM252.6 86.4Q252.6 47.1 248.4 27.9Q246 18 238.5 11.1T221.4 3.6Q190.8 0 128.7 0T35.7 3.6Q26.1 4.5 18.6 11.1T9 27.9Q4.5 46.5 4.5 86.4Q4.5 125.7 9 144.9Q11.1 154.8 18.6 161.7T35.7 169.5Q66.6 172.8 128.7 172.8T221.4 169.5Q231.3 168.3 238.8 161.7T248.4 144.9Q252.6 126.3 252.6 86.4zM85.5 300H102.6L82.5 233.1V187.8H65.7V233.1Q63.3 245.7 55.5 268.8Q49.2 285.9 44.4 300H62.4L74.1 255.9zM147.6 244.2V215.1Q147.6 201.3 142.8 195.3Q136.5 186.6 125.1 186.6Q114 186.6 107.4 195.3Q102.9 201.6 102.9 215.1V244.2Q102.9 257.7 107.4 264Q114 272.4 125.1 272.4Q136.5 272.4 142.8 264Q147.6 257.7 147.6 244.2zM203.7 271.5V187.8H188.4V197.1Q179.4 186.6 171 186.6Q163.5 186.6 161.1 192.9Q159.9 196.8 159.9 205.5V271.5H175.2V204Q175.8 200.4 178.8 200.4Q183.3 200.4 188.4 207.6V271.5H203.7z" />
    <glyph glyph-name="bag-2"
      unicode="&#xF13D;"
      horiz-adv-x="300" d="M25.2 223.5L0 11.1C-0.3 8.7 0.6 6 2.4 4.2C3.9 2.4 6.3 1.2 9 1.2H291C293.7 1.2 296.1 2.4 297.6 4.2C299.4 6 300.3 8.7 300 11.1L274.8 223.5C274.2 228 270.3 231.3 265.8 231.3H225.3C220.8 269.4 188.7 298.8 149.4 298.8S78 269.4 73.5 231.3H34.2C29.7 231.3 25.8 228 25.2 223.5zM149.4 280.8C178.8 280.8 202.8 259.2 207.3 231.3H91.8C96.3 259.2 120.3 280.8 149.4 280.8zM81.9 213.3H257.7L280.8 19.2H19.2L42.3 213.3H81.9z" />
    <glyph glyph-name="bag-20"
      unicode="&#xF13E;"
      horiz-adv-x="300" d="M137.7 298.8C124.2 295.8 114.6 290.4 104.7 279.6C94.2 268.5 87.9 254.4 87.9 242.4V237.9L56.7 237.6L25.2 237.3L24.9 118.8L24.6 0H275.4L275.1 118.8L274.8 237.3L243.6 237.6L212.1 237.9V242.4C212.1 254.4 205.8 268.5 195.3 279.6C183 293.1 170.7 298.8 153 299.4C147 299.7 140.4 299.4 137.7 298.8M165.3 271.8C176.1 267 185.1 255 186.9 242.7L187.8 237.9H112.2L113.1 242.7C115.5 258 127.5 271.2 142.2 274.2C148.8 275.7 159 274.5 165.3 271.8M87.9 193.5V174.6H112.5V212.1H187.5V174.6H212.1V212.1H249.6V24.6H50.4V212.1H87.9V193.5" />
    <glyph glyph-name="bag-3"
      unicode="&#xF13F;"
      horiz-adv-x="294" d="M11.1 184.8L0 35.4C0 17.1 12.3 0 29.4 0H263.4C281.7 0 294 15.9 294 35.4L281.7 183.6C279.3 202.2 263.4 220.5 244.8 220.5H204.6C204.6 276.6 185.1 300 147 300S90.6 276.6 90.6 220.5H48.9C29.4 220.5 11.1 199.5 11.1 184.8zM147 286.5C175.5 286.5 191.1 269.4 191.1 220.5H104.1C104.1 269.4 118.5 286.5 147 286.5zM268.2 178.8C270.6 164.1 279.6 45 280.5 35.4C280.8 30.6 276.6 13.5 263.4 13.5H30.6C22.2 13.5 12.6 27 13.5 37.8C14.7 54 22.8 154.2 24.6 177.6C25.8 194.7 38.1 207 55.2 207H234C259.5 207 267 186 268.2 178.8z" />
    <glyph glyph-name="bath-tub-1"
      unicode="&#xF140;"
      horiz-adv-x="300" d="M237.6086982037615 246.897441545138C236.570424766102 261.2680800043717 230.1926008046363 274.7089674926626 219.7570616759663 284.5193638435273C209.3215225472963 294.3297601943919 195.6011978099086 299.7827728351856 181.3531555814792 299.7827728351856C167.1051133530497 299.7827728351856 153.3847886156621 294.3297601943919 142.9492494869921 284.5193638435273C132.5137103583221 274.7089674926626 126.1358863968564 261.2680800043717 125.0976129591968 246.897441545138V227.7820926709551H150.0000040077038V246.897441545138C150.0000040077038 255.2664351899643 153.2874298540252 263.2926588857084 159.1391864729514 269.21053032405C164.9909430918777 275.1284351382386 172.9274973286347 278.4530366375598 181.2029920677681 278.4530366375598C189.478816836602 278.4530366375598 197.415371073359 275.1284351382386 203.2671276922852 269.21053032405C209.1188843112115 263.2926588857084 212.4063101575328 255.2664351899643 212.4063101575328 246.897441545138V151.926802556437H-0.0149963381828V101.2559253415263C0.063880760228 84.5423024202116 6.6641447398065 68.5359136976362 18.3504964332348 56.7175262614128C30.0368481266632 44.8991388251896 45.8644125015131 38.2243031760218 62.3913098116461 38.1445349016006V0.2172236028118H87.5936978578749V38.1445349016006H212.4063101575328V0.2172236028118H237.6086982037615V38.1445349016006C254.1355955138946 38.2243031760218 269.9631598887446 44.8991388251896 281.6495115821729 56.7175262614128C293.3358632756012 68.5359136976362 299.9361272551796 84.5423024202116 300.0150043535906 101.2559253415263V151.926802556437H237.6086982037615V246.897441545138z" />
    <glyph glyph-name="bath-tub-2"
      unicode="&#xF141;"
      horiz-adv-x="300" d="M166.5 297.9C150.9 293.7 138 283.2 130.5 267.6C126 258.6 126 258.6 125.7 241.8L125.1 225H149.7L150.3 238.8C150.9 254.7 152.4 258.9 160.8 266.7C174.6 279.6 195.9 276.9 207 261L211.5 254.1L211.8 202.2L212.1 150H-0.3L0.3 118.2C0.6 86.7 0.9 86.1 3.9 78.3C7.8 68.1 12.3 61.8 21 53.7C31.2 44.1 46.2 37.5 57.6 37.5H62.1V0H87.9V37.5H212.1V0H237.9V37.5H242.4C255.3 37.5 269.7 44.4 281.4 56.1C297.6 72.6 300 81.3 300 121.5V150H237.9V197.7C237.9 224.4 237.3 249 236.7 253.2C234.9 264 229.5 274.8 221.1 283.2C206.4 297.9 186.6 303 166.5 297.9M275.1 113.7C276 87.6 270 74.7 253.5 66.6L245.7 62.7H54.6L46.5 66.6C30 74.7 24.6 86.1 24.6 112.8V125.4L149.7 125.1L274.8 124.8L275.1 113.7" />
    <glyph glyph-name="bedroom-1"
      unicode="&#xF142;"
      horiz-adv-x="300" d="M0 143.7V24.6H24.6V62.1H275.4V24.6H300V137.1L162.6 137.4L25.2 137.7L24.9 200.1L24.6 262.5H0V143.7M66.6 223.8C55.5 221.1 45.9 213.3 40.8 203.1C38.7 198.6 38.1 195.6 38.1 187.5C38.1 175.8 40.8 169.2 48.6 161.1C61.8 148.2 81.6 146.4 96.6 157.2C120.9 174.6 116.4 210.6 88.8 222C83.1 224.4 72.3 225.3 66.6 223.8M125.4 187.5V150H300.3L299.7 173.7C299.4 196.2 299.4 197.7 296.7 203.4C293.1 210.6 285.3 218.1 278.1 221.7L272.4 224.4L198.9 224.7L125.4 225V187.5M81.6 198C86.7 195.3 88.8 186.9 85.5 181.2C84.6 179.4 82.2 177.3 80.1 176.4C67.8 170.4 56.7 186.6 66.3 196.2C70.5 200.4 75.3 201 81.6 198M270.9 195.9C274.5 192.3 274.8 191.7 274.8 183.6V175.2L212.4 174.9L150 174.6V200.4L208.5 200.1L267.3 199.8L270.9 195.9M275.4 100.2V87.9H24.6V112.5H275.4V100.2" />
    <glyph glyph-name="bedroom-2"
      unicode="&#xF143;"
      horiz-adv-x="300" d="M300 143.7H24.9V256.2C24.43758 259.17 22.92867 261.8769 20.64561 263.832C18.36255 265.7871 15.45579 266.8617 12.45 266.8617C9.44421 266.8617 6.53745 265.7871 4.25439 263.832C1.971342 261.8769 0.46242 259.17 0 256.2L0 43.8C0.46242 40.83 1.971342 38.1231 4.25439 36.168C6.53745 34.2129 9.44421 33.1383 12.45 33.1383C15.45579 33.1383 18.36255 34.2129 20.64561 36.168C22.92867 38.1231 24.43758 40.83 24.9 43.8V68.7H275.1V43.8C275.5623 40.83 277.0713 38.1231 279.3543 36.168C281.6376 34.2129 284.5443 33.1383 287.55 33.1383C290.5557 33.1383 293.4624 34.2129 295.7457 36.168C298.0287 38.1231 299.5377 40.83 300 43.8V143.7zM87.6 168.9C80.1831 168.9 72.933 171.0993 66.7662 175.2198C60.5994 179.3403 55.7928 185.1972 52.9545 192.0495C50.1162 198.9015 49.3737 206.4417 50.8206 213.7158C52.2675 220.9902 55.839 227.6721 61.0836 232.9164C66.3279 238.161 73.0098 241.7325 80.2842 243.1794C87.5583 244.6263 95.0985 243.8838 101.9505 241.0455C108.8028 238.2072 114.6597 233.4006 118.7802 227.2338C122.9007 221.067 125.1 213.8169 125.1 206.4C125.1 196.4544 121.149 186.9162 114.1164 179.8836C107.0838 172.851 97.5456 168.9 87.6 168.9V168.9zM300 168.9H162.6C159.3096 168.8991 156.1494 170.1852 153.795 172.4838C151.4403 174.7821 150.0783 177.9105 150 181.2V218.7C150 222.0417 151.3275 225.2466 153.6906 227.6094C156.0534 229.9725 159.2583 231.3 162.6 231.3H262.5C272.4456 231.3 281.9838 227.349 289.0164 220.3164C296.049 213.2838 300 203.7456 300 193.8V168.9z" />
    <glyph glyph-name="bulb-63"
      unicode="&#xF144;"
      horiz-adv-x="300" d="M37.5 143.7H12.6C9 143.7 6.3 146.7 6.3 150S9 156.3 12.6 156.3H37.5C41.1 156.3 43.8 153.6 43.8 150S41.1 143.7 37.5 143.7zM70.5 223.2C69 223.2 67.2 223.8 66 225L48.3 242.7C45.9 245.4 45.9 249.3 48.3 251.7S54.9 254.1 57.3 251.7L75 234C77.4 231.6 77.4 227.7 75 225C73.8 223.8 72 223.2 70.5 223.2zM150 256.2C146.7 256.2 143.7 259.2 143.7 262.5V287.4C143.7 291 146.7 293.7 150 293.7S156.3 291 156.3 287.4V262.5C156.3 259.2 153.6 256.2 150 256.2zM229.5 223.2C228 223.2 226.5 223.8 225 225C222.6 227.7 222.6 231.6 225 234L242.7 251.7C245.4 254.1 249.3 254.1 251.7 251.7S254.1 245.4 251.7 242.7L234 225C232.8 223.8 231.3 223.2 229.5 223.2zM287.4 143.7H262.5C259.2 143.7 256.2 146.7 256.2 150S259.2 156.3 262.5 156.3H287.4C291 156.3 293.7 153.6 293.7 150S291 143.7 287.4 143.7zM150 231.3C105.3 231.3 68.7 194.7 68.7 150C68.7 117.3 88.8 87.6 118.8 75V37.5H181.2V75C211.2 87.6 231.3 117.3 231.3 150C231.3 194.7 194.7 231.3 150 231.3zM137.4 6.3H162.6C172.8 6.3 181.2 14.7 181.2 24.9H118.8C118.8 14.7 127.2 6.3 137.4 6.3z" />
    <glyph glyph-name="business-agent"
      unicode="&#xF145;"
      horiz-adv-x="300" d="M134.4 298.8C104.1 293.4 76.5 269.4 66.9 240.9C57 210.3 65.1 160.8 84.6 135C88.5 129.6 89.1 128.4 87.9 127.5C87 126.9 72.6 118.2 56.4 108.3C39.9 98.4 24.9 88.8 23.4 87.3C21.6 85.5 18.6 81.6 16.8 78.3L13.5 72L13.2 36L12.9 0H287.1L286.8 36L286.5 72L283.2 78.3C281.4 81.6 278.4 85.5 276.6 87.3C275.1 88.8 260.1 98.4 243.9 108.3C227.4 118.2 213 126.9 212.1 127.5C210.9 128.4 211.5 129.6 214.8 134.4C234.9 160.5 243.3 210.9 232.5 241.8C224.1 266.7 202.5 287.4 176.7 295.8C168.9 298.5 164.4 299.1 153.6 299.4C146.1 299.7 137.7 299.4 134.4 298.8M160.5 274.2C176.7 271.5 192.6 260.7 202.5 246.3C206.7 240 211.8 226.8 210.6 225.6C209.7 224.4 197.4 228.9 189.3 233.1C184.5 235.5 177.6 240.9 171.9 246.3L162.3 255.3L152.7 246C137.7 231.9 119.1 223.8 100.8 223.8C90.6 223.8 88.8 224.7 89.7 228.9C92.7 243.6 108 261.9 123.6 269.1C136.2 274.8 146.7 276.3 160.5 274.2M166.8 217.5C176.7 210 194.7 202.2 205.8 200.7C208.8 200.4 211.2 199.8 211.5 199.2C212.7 197.7 208.8 178.5 205.5 170.1C201.9 159.9 199.2 155.1 192.6 146.4C181.5 132 167.7 125.4 150 125.4S118.5 132 107.4 146.4C100.8 155.1 98.1 159.9 94.5 170.1C92.1 176.4 87.9 195 87.9 198.9C87.9 198.9 93.3 199.2 99.6 199.2C112.8 199.2 125.1 201.3 135.9 205.8C143.7 208.8 158.7 217.2 159.9 219.3C161.1 221.1 162.6 220.5 166.8 217.5M130.2 102.6C135 101.1 142.2 100.5 150 100.5C163.8 100.5 173.7 102.6 184.2 107.7L190.8 111L225 90.3C246.6 77.4 259.8 68.7 260.7 66.9C261.9 64.8 262.5 58.5 262.5 44.1V24.6H196.2L183.6 56.4L171 87.9H129L116.4 56.4L103.8 24.6H37.5V44.1C37.5 58.5 38.1 64.8 39.3 66.9C40.2 68.7 53.4 77.4 75 90.3L109.2 111L115.8 107.7C119.4 105.9 126 103.5 130.2 102.6M160.8 45.3C164.4 36.3 167.7 27.9 168.3 26.7C168.9 24.6 167.7 24.6 150 24.6S131.1 24.6 131.7 26.7C132.3 27.9 135.6 36.3 139.2 45.3L145.8 62.1H154.2L160.8 45.3" />
    <glyph glyph-name="car-parking"
      unicode="&#xF146;"
      horiz-adv-x="300" d="M261 125.4609L239.7 189.0609C238.056 194.0451 234.879 198.3825 230.6226 201.4536C226.3662 204.5247 221.2485 206.172 216 206.1609H84C78.7515 206.172 73.6338 204.5247 69.3774 201.4536C65.121 198.3825 61.944 194.0451 60.3 189.0609L39 125.4609L19.8 106.2609C15.16944 101.535 12.58329 95.1774 12.6 88.5609V18.6609C12.67623 15.4227 13.99659 12.3381 16.28697 10.0479C18.57735 7.7574 21.6618 6.4371 24.9 6.3609H62.4C65.6904 6.36 68.8506 7.6461 71.205 9.9447C73.5597 12.243 74.9217 15.3714000000001 75 18.6609V31.2609H225V18.6609C225.0783 15.3714000000001 226.4403 12.243 228.795 9.9447C231.1494 7.6461 234.3096 6.36 237.6 6.3609H275.1C278.3382 6.4371 281.4228 7.7574 283.713 10.0479C286.0035 12.3381 287.3238 15.4227 287.4 18.6609V88.5609C287.4168 95.1774 284.8305 101.535 280.2 106.2609L261 125.4609zM216 181.2609L232.8 131.1609H67.5L84 181.2609H216zM37.5 88.5609L55.2 106.2609H244.8L262.5 88.5609V56.1609H37.5V88.5609zM62.4 81.3609C62.4 78.0192 63.7275 74.8143 66.0906 72.4512C68.4534 70.0884 71.6583 68.7609 75 68.7609C78.3417 68.7609 81.5466 70.0884 83.9094 72.4512C86.2725 74.8143 87.6 78.0192 87.6 81.3609C87.6 84.7026 86.2725 87.9075 83.9094 90.2703C81.5466 92.6334 78.3417 93.9609 75 93.9609C71.6583 93.9609 68.4534 92.6334 66.0906 90.2703C63.7275 87.9075 62.4 84.7026 62.4 81.3609zM212.4 81.3609C212.4 78.0192 213.7275 74.8143 216.0906 72.4512C218.4534 70.0884 221.6583 68.7609 225 68.7609C228.3417 68.7609 231.5466 70.0884 233.9094 72.4512C236.2725 74.8143 237.6 78.0192 237.6 81.3609C237.6 84.7026 236.2725 87.9075 233.9094 90.2703C231.5466 92.6334 228.3417 93.9609 225 93.9609C221.6583 93.9609 218.4534 92.6334 216.0906 90.2703C213.7275 87.9075 212.4 84.7026 212.4 81.3609zM150 267.6609000000001L282.3 207.3609L292.8 230.1609L155.1 292.56087C153.4938 293.27187 151.7565 293.63916 150 293.63916C148.2435 293.63916 146.5062 293.27187 144.9 292.56087L7.2 230.1609L17.7 207.3609L150 267.6609000000001z" />
    <glyph glyph-name="cart-add-2"
      unicode="&#xF147;"
      horiz-adv-x="300" d="M225 281.4V262.5H187.5V237.9H225V200.4H249.6L249.9 219L250.2 237.3L268.8 237.6L287.1 237.9V262.5H249.6V300H225V281.4M12.6 287.4L3.6 278.4L20.4 261.3L37.5 244.5V127.8L21 94.8L4.8 62.1H287.1V87.9H166.5C99.9 87.9 45.6 88.2 45.6 88.5S48.3 94.5 51.6 100.8L57.6 112.5H249.6V162.9H225V137.1L144 137.4L62.7 137.7V237.3L106.5 237.6L150 237.9V262.5H55.8L38.7 279.6L21.6 296.4L12.6 287.4M45 49.2C21.6 43.5 18 13.2 39.3 2.7C51.3 -3 64.2 0.9 71.1 12.3C79.5 26.7 72.6 44.1 57 48.6C50.7 50.7 50.4 50.7 45 49.2M243 48.9C236.1 46.5 231.3 42.3 228 36C224.1 28.2 224.1 21.9 228.3 14.1C232.5 5.7 239.1 0.9 247.2 0.3C264 -1.5 278.1 14.4 274.2 30.6C270.9 44.1 255.9 52.8 243 48.9" />
    <glyph glyph-name="cart-add"
      unicode="&#xF148;"
      horiz-adv-x="300" d="M225 281.4V262.5H187.5V237.9H225V200.4H249.6L249.9 219L250.2 237.3L268.8 237.6L287.1 237.9V262.5H249.6V300H225V281.4M12.6 287.4L3.6 278.4L20.4 261.3L37.5 244.5V127.8L21 94.8L4.8 62.1H287.1V87.9H166.5C99.9 87.9 45.6 88.2 45.6 88.5S48.3 94.5 51.6 100.8L57.6 112.5H249.6V162.9H225V137.1L144 137.4L62.7 137.7V237.3L106.5 237.6L150 237.9V262.5H55.8L38.7 279.6L21.6 296.4L12.6 287.4M45 49.2C21.6 43.5 18 13.2 39.3 2.7C51.3 -3 64.2 0.9 71.1 12.3C79.5 26.7 72.6 44.1 57 48.6C50.7 50.7 50.4 50.7 45 49.2M243 48.9C236.1 46.5 231.3 42.3 228 36C224.1 28.2 224.1 21.9 228.3 14.1C232.5 5.7 239.1 0.9 247.2 0.3C264 -1.5 278.1 14.4 274.2 30.6C270.9 44.1 255.9 52.8 243 48.9" />
    <glyph glyph-name="cart-refresh"
      unicode="&#xF149;"
      horiz-adv-x="300" d="M62.4 237.6H125.1V262.5H62.4V287.4C62.4 294.3 57 300 50.1 300H0V275.1H37.5V99.9C37.5 93 43.2 87.6 50.1 87.6H300V112.5H62.4V237.6zM225 275.1C235.2 275.1 244.8 270.9 251.7 264L231.6 249.3L285 237.6L290.4 291.9L271.8 278.7C260.1 291.9 243.3 300 225 300C196.5 300 171.6 280.8 164.4 253.2L188.7 246.9C192.9 263.4 207.9 275.1 225 275.1zM225 162.6C253.5 162.6 278.4 181.8 285.6 209.4L261.3 215.7C257.1 199.2 242.1 187.5 225 187.5C214.8 187.5 205.5 191.7 198.3 198.6L218.4 213.3L165 225L159.9 170.7L178.2 183.9C189.9 170.7 207 162.6 225 162.6zM37.5 31.2A31.2 31.2 0 0 0 99.9 31.2A31.2 31.2 0 0 0 37.5 31.2M237.6 31.2A31.2 31.2 0 0 0 300 31.2A31.2 31.2 0 0 0 237.6 31.2" />
    <glyph glyph-name="cart-return"
      unicode="&#xF14A;"
      horiz-adv-x="300" d="M0 287.7V275.4H19.5C30 275.4 38.7 275.4 38.7 275.1C38.7 275.1 44.4 232.8 51.3 181.8L63.9 88.5L162 88.2L260.1 87.9L260.7 90.6C264.6 107.1 289.2 234 288.6 234.6C287.4 235.5 266.1 239.4 265.5 238.8C265.2 238.5 259.2 210 252.3 175.5L239.7 112.5H162.6C101.1 112.5 85.5 112.8 85.5 114C85.5 115.5 62.7 288.3 61.5 295.5L60.6 300H0V287.7M122.1 264.6L94.8 237.3L122.4 209.7L150 182.4L158.7 191.1L167.7 199.8L155.1 212.4L142.5 225H200.4V150H225V249.6H142.5L155.1 262.2L167.7 274.8L159 283.2C154.5 288 150.3 291.9 150 291.9S137.1 279.6 122.1 264.6M77.1 73.5C67.5 70.8 59.1 63.6 53.7 53.4C51.3 49.5 51 46.8 51 37.5S51.3 25.5 53.7 21.3C60.6 8.7 71.7 1.2 85.2 0.3C95.7 -0.3 105 3 112.8 10.5C119.7 16.8 122.4 21.6 124.2 30.6C125.7 38.4 124.5 48 120.6 55.2C117.6 60.9 109.2 68.7 102.9 71.4C95.7 74.7 84.3 75.6 77.1 73.5M227.1 73.5C217.5 70.8 209.1 63.6 203.7 53.4C201.3 49.5 201 46.8 201 37.5S201.3 25.5 203.7 21.3C210.6 8.7 221.7 1.2 235.2 0.3C245.7 -0.3 255 3 262.8 10.5C269.7 16.8 272.4 21.6 274.2 30.6C275.7 38.4 274.5 48 270.6 55.2C267.6 60.9 259.2 68.7 252.9 71.4C245.7 74.7 234.3 75.6 227.1 73.5M91.8 48.9C96.9 46.5 99.6 42.6 99.6 37.2C99.6 32.1 95.1 26.4 90.3 25.2C83.1 23.7 75 30.3 75 37.8C75 42.3 79.2 48 83.4 49.2C85.5 49.8 87.6 50.1 87.6 50.4C87.9 50.4 89.7 49.8 91.8 48.9M241.8 48.9C246.9 46.5 249.6 42.6 249.6 37.2C249.6 32.1 245.1 26.4 240.3 25.2C233.1 23.7 225 30.3 225 37.8C225 42.3 229.2 48 233.4 49.2C235.5 49.8 237.6 50.1 237.6 50.4C237.9 50.4 239.7 49.8 241.8 48.9" />
    <glyph glyph-name="cart-simple-add"
      unicode="&#xF14B;"
      horiz-adv-x="300" d="M12.9 287.7V275.4H25.8C33 275.4 38.7 275.4 38.7 275.1C38.7 275.1 44.4 232.8 51.3 181.8L63.9 88.5L162 88.2C254.7 87.9 260.1 87.9 260.7 90C261 91.2 264.6 109.5 269.1 131.1L276.9 170.4L282 176.4C288.9 183.9 296.1 198.9 298.2 209.1C308.4 257.7 270 302.4 220.8 299.7C188.7 297.9 161.4 276 152.7 245.1L150.9 237.9H110.1C87.6 237.9 69.3 238.2 69.3 238.2C69.3 239.1 62.1 291.6 61.5 295.5L60.6 300H12.9V287.7M233.1 274.2C250.5 271.5 267 257.4 272.1 241.5C281.7 212.1 263.1 180.6 232.8 175.8C199.5 170.4 171 198.9 175.8 232.8C179.1 255.6 199.2 273.6 223.8 275.4C224.7 275.4 228.9 274.8 233.1 274.2M212.1 250.2V237.9H187.5V212.1H212.1V187.5H237.9V212.1H262.5V237.9H237.9V262.5H212.1V250.2M152.7 204.9C158.4 185.1 173.1 167.4 191.1 158.4C207 150.6 223.8 148.2 240 151.5C244.8 152.7 247.2 152.7 247.2 151.8C247.2 151.2 245.7 142.2 243.6 131.7L239.7 112.5H162.6C100.2 112.5 85.5 112.8 85.5 114C85.5 115.8 74.4 200.4 73.2 207.6L72.6 212.1H150.9L152.7 204.9M77.1 73.5C67.5 70.8 59.1 63.6 53.7 53.4C51.3 49.5 51 46.8 51 37.5S51.3 25.5 53.7 21.3C60.6 8.7 71.7 1.2 85.2 0.3C95.7 -0.3 105 3 112.8 10.5C119.7 16.8 122.4 21.6 124.2 30.6C125.7 38.4 124.5 48 120.6 55.2C117.6 60.9 109.2 68.7 102.9 71.4C95.7 74.7 84.3 75.6 77.1 73.5M227.1 73.5C217.5 70.8 209.1 63.6 203.7 53.4C201.3 49.5 201 46.8 201 37.5S201.3 25.5 203.7 21.3C210.6 8.7 221.7 1.2 235.2 0.3C245.7 -0.3 255 3 262.8 10.5C269.7 16.8 272.4 21.6 274.2 30.6C275.7 38.4 274.5 48 270.6 55.2C267.6 60.9 259.2 68.7 252.9 71.4C245.7 74.7 234.3 75.6 227.1 73.5M91.8 48.9C96.9 46.5 99.6 42.6 99.6 37.2C99.6 32.1 95.1 26.4 90.3 25.2C83.1 23.7 75 30.3 75 37.8C75 42.3 79.2 48 83.4 49.2C85.5 49.8 87.6 50.1 87.6 50.4C87.9 50.4 89.7 49.8 91.8 48.9M241.8 48.9C246.9 46.5 249.6 42.6 249.6 37.2C249.6 32.1 245.1 26.4 240.3 25.2C233.1 23.7 225 30.3 225 37.8C225 42.3 229.2 48 233.4 49.2C235.5 49.8 237.6 50.1 237.6 50.4C237.9 50.4 239.7 49.8 241.8 48.9" />
    <glyph glyph-name="cart-speed-1"
      unicode="&#xF14C;"
      horiz-adv-x="300" d="M0 287.7V275.4L24.9 275.1L49.8 274.8L50.1 256.5L50.4 237.9H148.2C213.9 237.9 246 237.6 246 236.7C246 236.1 240.9 214.5 234.3 188.4C228 162.6 222.6 141.3 222.9 141.3C223.5 140.7 246.6 134.7 246.6 135C246.9 135.3 254.1 164.1 262.8 198.9L278.7 262.5H75V300H0V287.7M50.4 199.8V187.5H125.4V212.1H50.4V199.8M24.6 150V137.1H99.6V162.9H24.6V150M0 100.2V87.9H300V112.5H0V100.2M66.6 73.8C55.5 71.1 45.9 63.3 40.8 53.1C38.7 48.6 38.1 45.6 38.1 37.5C38.1 25.5 40.8 19.2 48.6 11.1C61.8 -1.8 81.6 -3.6 96.6 7.2C120.9 24.3 116.4 60.6 88.8 72C83.1 74.4 72.3 75.3 66.6 73.8M254.1 73.8C243 71.1 233.4 63.3 228.3 53.1C226.2 48.6 225.6 45.6 225.6 37.5C225.6 25.5 228.3 19.2 236.1 11.1C249.3 -1.8 269.1 -3.6 284.1 7.2C308.4 24.3 303.9 60.6 276.3 72C270.6 74.4 259.8 75.3 254.1 73.8M81.6 48C86.7 45.3 88.8 36.9 85.5 31.2C84.6 29.4 82.2 27.3 80.1 26.4C67.8 20.4 56.7 36.6 66.3 46.2C70.5 50.4 75.3 51 81.6 48M269.1 48C274.2 45.3 276.3 36.9 273 31.2C272.1 29.4 269.7 27.3 267.6 26.4C255.3 20.4 244.2 36.6 253.8 46.2C258 50.4 262.8 51 269.1 48" />
    <glyph glyph-name="cart-speed-2"
      unicode="&#xF14D;"
      horiz-adv-x="300" d="M0 112.5H300V87.6H0V112.5zM24.9 162.6H99.9V137.4H24.9V162.6zM50.1 249.9C50.1 243 55.5 237.6 62.4 237.6H246.6L222.3 141L246.6 135L274.5 246.9C275.7 250.8 274.8 254.7 272.4 257.7S266.4 262.5 262.5 262.5H75V287.4C75 294.3 69.3 300 62.4 300H0V275.1H50.1V249.9zM50.1 212.4H125.1V187.5H50.1V212.4zM37.5 31.2A31.2 31.2 0 0 0 99.9 31.2A31.2 31.2 0 0 0 37.5 31.2M225 31.2A31.2 31.2 0 0 0 287.4 31.2A31.2 31.2 0 0 0 225 31.2" />
    <glyph glyph-name="chart-bar-32-2"
      unicode="&#xF14E;"
      horiz-adv-x="300" d="M112.5 150V24.6H187.5V275.4H112.5V150M162.9 150V50.4H137.1V249.6H162.9V150M225 112.5V24.6H300V200.4H225V112.5M275.4 112.5V50.4H249.6V174.6H275.4V112.5M0 81V24.6H75V137.1H0V81M50.4 81.6V50.4H24.6V112.5H50.4V81.6" />
    <glyph glyph-name="chart-bar-32"
      unicode="&#xF14F;"
      horiz-adv-x="300" d="M174.9 275.1H125.1C118.2 275.1 112.5 269.4 112.5 262.5V37.5C112.5 30.6 118.2 24.9 125.1 24.9H174.9C181.8 24.9 187.5 30.6 187.5 37.5V262.5C187.5 269.4 181.8 275.1 174.9 275.1zM62.4 137.4H12.6C5.7 137.4 0 132 0 125.1V37.5C0 30.6 5.7 24.9 12.6 24.9H62.4C69.3 24.9 75 30.6 75 37.5V125.1C75 132 69.3 137.4 62.4 137.4zM287.4 200.1H237.6C230.7 200.1 225 194.4 225 187.5V37.5C225 30.6 230.7 24.9 237.6 24.9H287.4C294.3 24.9 300 30.6 300 37.5V187.5C300 194.4 294.3 200.1 287.4 200.1z" />
    <glyph glyph-name="chat"
      unicode="&#xF150;"
      horiz-adv-x="300" d="M0 181.2V75H94.5L121.8 40.5C136.8 21.3 149.7 5.7 150 5.7S163.2 21.3 178.2 40.5L205.8 75H300V287.1H0V181.2M275.1 181.5L274.8 100.2L234 99.6L193.5 99L172.2 72.6C160.5 58.2 150.6 46.2 150.3 45.9C149.7 45.9 139.8 57.9 127.8 72.6L106.2 99.6H24.6V262.5H275.4L275.1 181.5" />
    <glyph glyph-name="check"
      unicode="&#xF151;"
      horiz-adv-x="300" d="M193.8 161.4L112.5 80.4L68.7 123.9L25.2 167.7L16.5 158.7L7.8 150L60 97.5L112.5 45L202.5 135L292.5 225L283.5 233.7L274.8 242.7L193.8 161.4" />
    <glyph glyph-name="circle-1"
      unicode="&#xF152;"
      horiz-adv-x="300" d="M150 300C67.2 300 0 232.8 0 150S67.2 0 150 0S300 67.2 300 150S232.8 300 150 300zM233.7 57.6C225.3 82.2 202.5 99.9 174.9 99.9H125.1C97.5 99.9 74.7 82.2 66.3 57.6C41.1 80.4 24.9 113.4 24.9 150C24.9 219 81 275.1 150 275.1S275.1 219 275.1 150C275.1 113.4 258.9 80.4 233.7 57.6zM154.8 242.1C128.1 242.1 106.5 218.7 106.5 190.2V177.3C106.5 148.8 128.1 125.7 154.8 125.7S203.1 148.8 203.1 177.3V190.2C203.1 218.7 181.5 242.1 154.8 242.1z" />
    <glyph glyph-name="circle-10"
      unicode="&#xF153;"
      horiz-adv-x="300" d="M127.2 298.2C61.2 287.1 11.7 236.7 1.8 171C-5.4 124.5 11.4 76.2 46.2 42.6C104.7 -14.1 195.3 -14.1 253.8 42.6C315.3 101.7 315 198 253.5 258C220.8 289.8 171.3 305.7 127.2 298.2M162.9 274.2C182.1 272.1 203.1 264.6 220.2 253.5C228.6 247.8 247.8 228.6 253.5 219.9C262.8 205.8 270 188.1 273 171C275.1 160.2 274.8 137.1 272.4 126C268.8 108.3 259.5 87.3 250.8 76.2L246.9 71.4L243 78.3C237.6 87.6 231 93 215.4 102C198 111.9 198.9 111 201.3 114.6C205.2 120 208.8 128.1 210.6 134.1C212.7 142.5 212.7 182.4 210.3 190.8C205.8 207.9 192.3 224.1 176.7 231.6C151.8 243 125.1 238.2 106.2 219C90.6 203.1 87.9 194.7 87.9 162.3C87.9 135.6 89.4 128.4 97.5 116.4L100.8 111.6L92.4 106.5C66.9 92.1 63.9 89.4 57 78.3L53.1 71.4L49.5 75.9C45 81.6 37.2 96 33.3 105.6C26.1 123.6 23.4 152.4 27 171C30.3 188.4 36.9 205.5 46.2 219.9C52.2 228.6 71.1 247.8 79.8 253.5C99.9 266.7 123.3 273.9 147.9 275.1C149.4 275.4 156.3 274.8 162.9 274.2M166.2 208.8C173.7 204.9 180 198.6 183.6 191.1C186.9 184.8 186.9 184.2 186.9 162.9C186.9 141.9 186.9 141 183.9 134.7C180 126.6 172.8 119.1 165.3 115.5C157.8 112.2 142.2 112.2 134.7 115.5C127.2 119.1 120 126.6 116.1 134.7C113.1 141 113.1 141.9 113.1 162.9C113.1 182.4 113.4 185.1 115.5 189.9C120 199.5 127.8 206.7 138.3 210.6C144.6 213 159.9 212.1 166.2 208.8M131.4 90.3C140.4 87 159.6 87 168.9 90.3C172.2 91.5 176.1 93 177 93.3C179.7 94.2 212.7 75.6 218.1 70.2C222.3 65.7 225 59.1 225 53.1C225 50.4 223.8 49.2 219 45.6C177 18.3 123.3 18.3 81 45.9L74.7 49.8L75.3 56.1C76.2 63 80.1 69.9 85.5 73.5C98.4 81.9 120.6 93.9 122.4 93.3C123.9 93 127.8 91.8 131.4 90.3" />
    <glyph glyph-name="circle-simple-left"
      unicode="&#xF154;"
      horiz-adv-x="300" d="M127.2 298.2C61.2 287.1 11.7 236.7 1.8 171C-5.4 124.5 11.4 76.2 46.2 42.6C104.7 -14.1 195.3 -14.1 253.8 42.6C315.3 101.7 315 198 253.5 258C220.8 289.8 171.3 305.7 127.2 298.2M162.9 274.2C182.1 272.1 203.1 264.6 220.2 253.5C228.6 247.8 247.8 228.6 253.5 219.9C262.8 205.8 270 188.1 273 171C275.1 160.2 274.8 137.1 272.4 126C261 71.1 217.5 31.5 162.3 25.8C126.3 22.2 90.9 34.2 64.5 59.1C39 83.4 25.5 114.3 25.5 149.4C25.5 175.2 32.1 198.3 46.2 219.9C52.2 228.6 71.1 247.8 79.8 253.5C99.9 266.7 123.3 273.9 147.9 275.1C149.4 275.4 156.3 274.8 162.9 274.2M103.2 183.3L69.9 150L103.2 116.7C121.5 98.1 137.1 83.1 137.7 83.1S142.5 87 147 91.5L155.1 99.6L136.5 118.5L117.9 137.1H225V162.9H117.9L136.5 181.5L155.1 200.4L147 208.5C142.5 213 138.3 216.9 137.7 216.9S121.5 201.9 103.2 183.3" />
    <glyph glyph-name="circle-simple-right-2"
      unicode="&#xF155;"
      horiz-adv-x="300" d="M125.1 293.1C62.7 281.4 15.6 233.1 6.3 171.3C-3.9 103.5 36 36.9 100.8 13.5C118.8 7.2 129 5.4 150 5.4C165.9 5.4 171.3 5.7 180 7.8C209.7 15 232.5 27.3 252.6 47.4C273 67.8 286.2 92.4 292.5 121.8C295.5 135.3 295.5 164.1 292.5 177.9C285 214.2 265.2 245.1 236.1 266.7C204.9 290.1 162.6 300 125.1 293.1M170.7 284.1C185.4 281.7 197.7 277.8 211.5 270.9C294.6 228.6 311.4 117.6 244.5 53.1C226.2 35.4 207.6 24.9 182.7 18.3C170.4 15 168 14.7 150 14.7S129.6 15 117 18.3C70.8 30.6 34.5 64.8 20.7 108.9C5.7 156.6 17.7 208.2 51.9 243.6C83.4 276 127.8 291.3 170.7 284.1M165.3 218.4L162.3 215.7L192.9 185.1L223.2 154.8H65.7V145.2H223.2L192.9 114.9L162.3 84.3L165.6 81.3L168.9 78L204.9 114L240.9 150L205.2 185.7C185.4 205.5 169.2 221.4 168.6 221.4C168.3 221.4 166.8 220.2 165.3 218.4" />
    <glyph glyph-name="circle-simple-right"
      unicode="&#xF156;"
      horiz-adv-x="300" d="M127.2 298.2C61.2 287.1 11.7 236.7 1.8 171C-5.4 124.5 11.4 76.2 46.2 42.6C104.7 -14.1 195.3 -14.1 253.8 42.6C315.3 101.7 315 198 253.5 258C220.8 289.8 171.3 305.7 127.2 298.2M162.9 274.2C182.1 272.1 203.1 264.6 220.2 253.5C228.6 247.8 247.8 228.6 253.5 219.9C262.8 205.8 270 188.1 273 171C275.1 160.2 274.8 137.1 272.4 126C261 71.1 217.5 31.5 162.3 25.8C126.3 22.2 90.9 34.2 64.5 59.1C39 83.4 25.5 114.3 25.5 149.4C25.5 175.2 32.1 198.3 46.2 219.9C52.2 228.6 71.1 247.8 79.8 253.5C99.9 266.7 123.3 273.9 147.9 275.1C149.4 275.4 156.3 274.8 162.9 274.2M153 208.5L144.9 200.4L163.5 181.5L182.1 162.9H75V137.1H182.1L163.5 118.5L144.9 99.6L153 91.5C157.5 87 161.7 83.1 162.3 83.1S178.5 98.1 196.8 116.7L230.4 150L196.8 183.3C178.5 201.9 162.9 216.9 162.3 216.9S157.5 213 153 208.5" />
    <glyph glyph-name="clock"
      unicode="&#xF157;"
      horiz-adv-x="300" d="M127.2 298.2C61.2 287.1 11.7 236.7 1.8 171C-5.4 124.5 11.4 76.2 46.2 42.6C104.7 -14.1 195.3 -14.1 253.8 42.6C315.3 101.7 315 198 253.5 258C220.8 289.8 171.3 305.7 127.2 298.2M162.9 274.2C182.1 272.1 203.1 264.6 220.2 253.5C228.6 247.8 247.8 228.6 253.5 219.9C262.8 205.8 270 188.1 273 171C275.1 160.2 274.8 137.1 272.4 126C261 71.1 217.5 31.5 162.3 25.8C126.3 22.2 90.9 34.2 64.5 59.1C39 83.4 25.5 114.3 25.5 149.4C25.5 175.2 32.1 198.3 46.2 219.9C52.2 228.6 71.1 247.8 79.8 253.5C99.9 266.7 123.3 273.9 147.9 275.1C149.4 275.4 156.3 274.8 162.9 274.2M137.7 236.4C137.4 235.8 137.1 213 137.4 186.3L137.7 137.7H237.3V162.3L200.1 162.6L162.9 162.9L162.6 200.1L162.3 237.3L150.3 237.6C141.3 237.9 138 237.6 137.7 236.4" />
    <glyph glyph-name="compare"
      unicode="&#xF158;"
      horiz-adv-x="300" d="M66 208.2L57.3 199.8L75.9 181.5L94.2 162.9H12.9V137.1H94.2L75.9 118.5L57.3 100.2L66.3 91.5L75 82.8L108.6 116.4L142.5 150L108.9 183.3C90.6 201.9 75.3 216.9 75 216.9S70.5 213 66 208.2M191.1 183.3L157.5 150L191.4 116.4L225 82.8L233.7 91.5L242.7 100.2L224.1 118.5L205.8 137.1H287.1V162.9H205.8L224.1 181.5L242.7 199.8L234 208.2C229.5 213 225.3 216.9 225 216.9S209.4 201.9 191.1 183.3" />
    <glyph glyph-name="contrast"
      unicode="&#xF159;"
      horiz-adv-x="300" d="M225 162.6H162.6V137.4H225V87.6L300 150L225 212.4zM137.4 162.6H75V212.4L0 150L75 87.6V137.4H137.4z" />
    <glyph glyph-name="d-check"
      unicode="&#xF15A;"
      horiz-adv-x="300" d="M174.9 167.4L125.4 117.9L100.2 143.1L75 168.3L66 159L57 150L90.3 116.7C108.6 98.1 124.2 83.1 124.8 83.1S152.1 109.5 184.2 141.6L242.7 199.8L234 208.2C229.5 213 225.3 216.9 225 216.9S202.2 194.4 174.9 167.4" />
    <glyph glyph-name="d-edit"
      unicode="&#xF15B;"
      horiz-adv-x="300" d="M162.6 218.1L88.8 144.6L79.8 107.7C74.7 87.6 70.5 70.8 70.8 70.8C70.8 70.5 87.6 74.7 107.7 79.8L144.6 88.8L218.1 162.6C258.6 203.1 291.9 236.7 291.9 237.3C291.9 238.8 238.8 291.9 237.3 291.9C236.7 291.9 203.1 258.6 162.6 218.1M247.8 247.2L257.1 237.9L247.2 228L237.3 218.1L227.7 227.7L218.1 237.3L227.7 246.9C232.8 252.3 237.6 256.8 237.9 256.8S242.7 252.3 247.8 247.2M12.9 131.4V12.9H249.6V125.4H225V37.5H37.5V225H125.4V249.6H12.9V131.4M210.3 209.7L219.6 200.4L174.6 155.4L129.6 110.7L117.9 108C111.6 106.5 106.2 105.6 105.9 105.9S106.5 111.6 108 117.9L110.7 129.6L155.1 174.3C179.7 198.9 200.1 219.3 200.4 219.3S205.2 214.8 210.3 209.7" />
    <glyph glyph-name="detached-property"
      unicode="&#xF15C;"
      horiz-adv-x="300" d="M276.6 135.9H281.4A4.8 4.8 0 0 0 281.4 145.2H18.9A4.8 4.8 0 0 0 18.9 135.9H23.4V32.7H18.9A4.8 4.8 0 0 0 14.1 28.2V18.6A4.8 4.8 0 0 0 18.9 14.1H121.8V84.3A4.8 4.8 0 0 1 126.6 89.1H173.4A4.8 4.8 0 0 1 178.2 84.3V14.1H281.4A4.8 4.8 0 0 0 285.9 18.6V28.2A4.8 4.8 0 0 0 281.4 32.7H276.6zM93.9 56.4A4.8 4.8 0 0 1 89.1 51.6H56.4A4.8 4.8 0 0 1 51.6 56.4V103.2A4.8 4.8 0 0 1 56.4 107.7H89.1A4.8 4.8 0 0 1 93.9 103.2zM248.4 56.4A4.8 4.8 0 0 1 243.9 51.6H210.9A4.8 4.8 0 0 1 206.4 56.4V103.2A4.8 4.8 0 0 1 210.9 107.7H243.9A4.8 4.8 0 0 1 248.4 103.2zM150 266.4L60.9 235.5V154.8H239.1V235.5zM131.4 186.9A4.2 4.2 0 0 1 127.2 182.7H102.6A4.2 4.2 0 0 1 98.4 186.9V220.8A4.2 4.2 0 0 1 102.6 225H127.2A4.2 4.2 0 0 1 131.4 220.8zM201.6 186.9A4.2 4.2 0 0 1 197.4 182.7H172.8A4.2 4.2 0 0 1 168.9 186.9V220.8A4.2 4.2 0 0 1 172.8 225H197.4A4.2 4.2 0 0 1 201.6 220.8zM257.7 239.1A4.5 4.5 0 0 1 256.2 239.4L150 276.3L43.8 239.4A4.8 4.8 0 1 1 40.8 248.1L148.5 285.6A4.5 4.5 0 0 1 151.5 285.6L259.5 248.1A4.8 4.8 0 0 1 257.7 239.1z" />
    <glyph glyph-name="dot-3"
      unicode="&#xF15D;"
      horiz-adv-x="276" d="M33 183Q46.8 183 56.4 173.4T66 150Q66 136.8 56.4 126.9T33 117T9.6 126.9T0 150Q0 163.8 9.6 173.4T33 183zM138 183Q151.8 183 161.4 173.4T171 150Q171 136.8 161.1 126.9T138 117T114.9 126.9T105 150Q105 163.8 114.6 173.4T138 183zM243 183Q256.8 183 266.4 173.4T276 150Q276 136.8 266.4 126.9T243 117T219.6 126.9T210 150Q210 163.8 219.6 173.4T243 183z" />
    <glyph glyph-name="down-arrow"
      unicode="&#xF15E;"
      horiz-adv-x="300" d="M150 75C146.7 75 143.7 76.2 141.3 78.6L7.2 212.4L24.9 230.1L150 105.3L275.1 230.1L292.8 212.4L159 78.6C156.3 76.2 153.3 75 150 75z" />
    <glyph glyph-name="e-add"
      unicode="&#xF15F;"
      horiz-adv-x="300" d="M281.4 168.9H168.9V281.4H131.4V168.9H18.9V131.4H131.4V18.6H168.9V131.4H281.4V168.9z" />
    <glyph glyph-name="e-delete"
      unicode="&#xF160;"
      horiz-adv-x="300" d="M18.9 168.9H281.4V131.4H18.9V168.9z" />
    <glyph glyph-name="e-remove"
      unicode="&#xF161;"
      horiz-adv-x="300" d="M53.7 246.3C49.2 242.1 45.6 237.9 45.6 237.3S65.1 216.9 88.8 193.2L131.7 150L88.8 106.8C65.1 83.4 45.6 63.3 45.6 62.7C45.6 61.2 61.2 45.6 62.7 45.6C63.3 45.6 83.4 65.1 106.8 88.8L150 131.7L193.8 88.2L237.3 44.4L245.7 53.1C250.5 57.9 254.4 62.1 254.4 62.7S234.9 83.4 211.2 106.8L168.3 150L211.2 193.2C234.9 216.9 254.4 236.7 254.4 237.3C254.4 238.8 238.8 254.4 237.3 254.4C236.7 254.4 216.9 234.9 193.2 211.2L150 168.3L106.8 211.2C83.4 234.9 63.3 254.4 62.7 254.4S57.9 250.8 53.7 246.3" />
    <glyph glyph-name="email"
      unicode="&#xF162;"
      horiz-adv-x="300" d="M27 273.9C23.4 273 18.9 271.5 16.8 270.3C11.7 267.6 5.4 260.1 2.7 253.5C0.6 248.1 0.6 243.3 0.6 149.4V51L3.3 45C8.1 34.5 16.5 27.9 28.5 25.8C38.4 24 261.6 24 271.5 25.8C283.5 27.9 291.9 34.5 296.7 45L299.4 51V149.4C299.4 243.3 299.4 248.1 297.3 253.5C294.6 260.4 288.3 267.6 282.6 270.6C280.2 271.8 275.1 273.3 271.2 274.2C261 276 35.7 275.7 27 273.9M270.6 248.4C275.1 246 275.4 242.7 275.4 150S275.1 54 270.6 51.6C269.4 50.7 225 50.4 149.7 50.4C34.2 50.4 30.6 50.4 27.9 52.5L25.2 54.9V245.1L27.9 247.5C30.6 249.6 34.2 249.6 149.7 249.6C225 249.6 269.4 249.3 270.6 248.4M53.7 221.7C49.2 217.5 45.6 213.3 45.6 212.7S69.3 188.1 97.8 159.3L150 107.4L202.2 159.3C230.7 188.1 254.4 212.1 254.4 212.7S250.5 217.5 246 222L237.9 230.4L193.8 186.3L150 142.5L106.5 186C82.2 210 62.4 229.8 62.1 229.8S57.9 226.2 53.7 221.7M66.6 109.2C55.2 97.8 45.6 87.9 45.6 87.3S49.5 82.5 54 78L62.1 69.9L83.4 91.2L105 112.5L96 121.2L87.3 130.2L66.6 109.2M204 121.2L195.3 112.5L216.6 91.2L237.9 69.9L246 78C250.5 82.5 254.4 86.7 254.4 87.3S244.8 97.8 233.4 109.2L212.7 130.2L204 121.2" />
    <glyph glyph-name="envato"
      unicode="&#xF163;"
      horiz-adv-x="264" d="M220.8 286.8C234 280.8 286.8 166.8 241.2 68.4C205.2 -10.8 112.8 -10.8 66 16.8C26.4 40.8 -34.8 115.2 32.4 207.6C34.8 211.2 42 211.2 40.8 200.4C39.6 193.2 30 139.2 48 116.4C56.4 104.4 58.8 112.8 58.8 112.8S58.8 190.8 118.8 249.6C157.2 285.6 211.2 291.6 220.8 286.8z" />
    <glyph glyph-name="eye"
      unicode="&#xF164;"
      horiz-adv-x="300" d="M131.1 236.1C95.7 230.7 62.7 210.9 30.9 176.7C22.5 167.7 10.5 152.1 10.5 150C10.5 146.1 29.1 123.9 44.7 109.5C77.7 78.6 112.8 63 150 63S222.3 78.6 255.3 109.5C273.9 126.9 290.1 147 288.9 151.2C288 154.2 276.6 168.9 268.5 177.6C243 204.6 218.7 221.4 192 230.1C170.4 237.3 151.5 239.4 131.1 236.1M166.2 208.8C173.7 204.9 180 198.6 183.6 191.1C186.3 185.7 186.9 183 186.9 175.2C186.9 163.8 183.9 156.3 176.7 149.1C161.1 134.1 138.9 134.1 123.3 149.1C116.1 156.3 113.1 163.8 113.1 175.2C113.1 192.3 122.1 204.6 138.3 210.6C144.6 213 159.9 212.1 166.2 208.8M89.1 189.3C87.3 181.8 87.6 165.3 89.7 158.1C96 137.1 113.4 119.7 134.1 114.3C143.1 111.9 156.9 111.9 165.9 114.3C187.5 120 206.4 139.8 210.9 161.4C212.4 168 212.1 186.6 210.3 192C208.2 198.3 236.4 176.1 252 158.7C255.9 154.5 258.9 150.6 258.9 150C258.9 147 234 122.7 220.5 112.8C170.4 75.6 113.1 80.1 64.5 125.1C54.3 134.4 41.1 148.5 41.1 150S55.2 166.8 63.9 174.6C71.1 181.2 89.4 194.7 90 194.1C90 194.1 89.7 191.7 89.1 189.3" />
    <glyph glyph-name="f-chat"
      unicode="&#xF165;"
      horiz-adv-x="300" d="M0 181.2V75H94.5L121.8 40.5C136.8 21.3 149.7 5.7 150 5.7S163.2 21.3 178.2 40.5L205.8 75H300V287.1H0V181.2M275.1 181.5L274.8 100.2L234 99.6L193.5 99L172.2 72.6C160.5 58.2 150.6 46.2 150.3 45.9C149.7 45.9 139.8 57.9 127.8 72.6L106.2 99.6H24.6V262.5H275.4L275.1 181.5M75 212.7V200.4H225V225H75V212.7M75 150V137.1H174.6V162.9H75V150" />
    <glyph glyph-name="f-comment-1"
      unicode="&#xF166;"
      horiz-adv-x="300" d="M300 162.45C300 231.45 232.5 287.85 150 287.85S0 231.45 0 162.45C0 93.75 67.5 37.65 150 37.65C162.3 37.65 175.2 38.55 187.5 40.95L257.1 13.35C258.9 13.35 260.1 12.15 262.5 12.15S267.9 13.35 270 15.15C273.6 17.55 274.8 22.35 274.8 26.25L269.1 85.05C288.9 107.25 300 134.85 300 162.45zM175.2 124.95H87.3V150.15H175.2zM212.7 175.35H87.3V199.95H212.7z" />
    <glyph glyph-name="f-comment"
      unicode="&#xF167;"
      horiz-adv-x="300" d="M122.4 285.3C73.5 277.8 31.2 249.3 12 211.5C-12.9 162 2.4 104.7 50.4 69.3C59.7 62.4 77.1 52.8 89.1 48.3C112.2 39.3 145.5 35.4 169.5 38.7C190.8 41.7 184.5 43.2 233.1 23.4C257.1 13.8 276.9 6 277.2 6C277.2 6.3 275.4 24.3 272.7 45.9L268.2 85.5L272.7 91.2C298.2 122.1 306 159 294.6 195C279.9 241.8 234 276.9 176.4 285.3C161.7 287.4 136.8 287.4 122.4 285.3M171.6 260.7C218.4 253.8 254.7 228.3 268.8 193.2C273.3 182.1 274.5 175.5 274.5 162.9C274.5 139.5 266.7 120.9 248.7 101.7L241.8 94.5L244.5 72.3C246 60 247.2 48.6 247.2 47.4C247.2 45 245.1 45.6 218.4 56.4L189.6 68.1L182.4 66.3C169.8 63.3 150.9 62.1 136.2 63.3C68.1 69.6 18.9 118.2 25.8 171.9C30.3 207 56.1 237 94.5 252C105 256.2 123.3 260.7 133.5 261.6C144 262.8 161.1 262.2 171.6 260.7M87.9 187.5V174.6H212.1V200.4H87.9V187.5M87.9 137.7V125.4H174.6V150H87.9V137.7" />
    <glyph glyph-name="full-screen"
      unicode="&#xF168;"
      horiz-adv-x="300" d="M0 150V24.6H300V275.4H0V150M275.4 150V50.4H24.6V249.6H275.4V150M174.6 212.7V200.4H225V150H249.6V225H174.6V212.7M50.4 112.5V75H125.4V99.6H75V150H50.4V112.5" />
    <glyph glyph-name="g-check"
      unicode="&#xF169;"
      horiz-adv-x="300" d="M248.4 246.3C193.5 228 151.8 203.7 108.3 164.4L97.5 154.8L73.5 173.1L49.2 191.4L29.4 171.6C18.3 160.8 9.3 151.5 9.3 150.9S30.3 122.4 55.5 88.5L101.7 27L110.1 42C127.5 73.8 142.8 93.9 169.8 120.9C201.6 152.4 237.9 178.8 276.6 199.2L291.6 207L280.5 229.5C272.4 246.6 269.1 252 267.6 252C266.4 252 257.7 249.3 248.4 246.3M257.1 220.8C258.3 218.1 257.4 217.5 240 207C184.8 173.7 137.7 130.8 106.8 85.2C102.6 78.9 98.7 73.8 98.4 74.1C97.2 74.4 42.3 147.9 42.3 148.8C42.3 149.1 44.4 151.5 46.8 153.9L51.3 158.4L76.8 139.2L102.3 120.3L105.3 124.2C111 131.7 127.2 147.9 139.5 158.1C171.3 184.8 202.2 202.5 243.3 218.1C257.1 223.2 256.2 223.2 257.1 220.8" />
    <glyph glyph-name="globe-1"
      unicode="&#xF16A;"
      horiz-adv-x="281.25" d="M0 150Q0 178.5 11.1 204.6T41.1 249.3T86.1 279.3T140.7 290.4T195.3 279.3T240 249.3T270 204.6T281.1 150Q281.1 121.5 270 95.4T240 50.4T195.3 20.4T140.7 9.3T86.1 20.4T41.1 50.4T11.1 95.4T0 150zM26.4 150Q26.4 127.2 35.1 106.2T58.8 70.5T94.2 45.9T137.1 36Q135 38.4 133.8 45.9Q133.5 48 133.2 53.4T132 61.5Q131.7 63.6 126.9 78Q125.4 82.5 123.6 83.7T116.7 85.2Q114.3 85.5 109.5 85.5T101.1 85.8T93.3 86.4T86.1 88.2T79.8 91.2T74.7 96.6T72.3 104.4Q69 123 83.7 135.3Q91.2 141.6 99.3 143.7T118.5 145.5Q125.7 145.5 131.1 141.3Q137.7 135.9 144.3 135.6Q145.8 135.6 150.9 135T159.3 134.4T167.1 134.7T174 136.8V138.9Q174 139.5 174.3 141T174.6 144T174.6 146.1T172.8 147.9Q171.6 148.5 166.8 148.2T160.8 149.4Q158.4 151.8 161.7 154.2T170.7 159T177 162Q181.2 166.2 175.2 167.4Q169.5 168.6 163.8 166.2Q162.6 165.6 161.7 165Q159.3 162.6 156.6 156.3Q155.7 154.5 153.9 151.5T151.2 147L149.4 148.8Q148.2 150 147.9 150.6Q147 151.5 144.6 156.6L143.7 158.4Q143.1 159.6 143.1 160.2T142.2 162.3T141 163.5T139.5 164.4T137.4 164.4Q137.1 161.1 139.5 157.5T141.6 151.5Q141.9 147.6 140.1 147.9T135.6 151.8Q135 152.7 134.1 154.5T132.6 157.2T130.8 159T128.1 160.2T124.5 160.2Q120.6 159.6 118.5 158.1Q117.9 157.5 116.4 155.7T113.4 153.3Q112.5 148.2 105.3 148.5H103.5Q102 148.5 101.1 148.8T98.7 149.1T96.6 149.7T95.4 150.9Q94.5 152.4 96 157.2T98.4 163.5T101.7 165.6T107.4 165.9T111.3 165.6Q111.9 168.3 110.1 170.7T107.7 173.7Q107.4 175.2 107.4 176.1T108.3 177.3T110.4 177.6H114.3Q119.7 178.8 123.3 182.4L124.5 183.3L125.7 184.2L127.2 185.4L129 186L130.5 186.6L132.3 186.3Q132.9 186 134.1 184.8T135.9 183.6Q137.1 183.3 140.7 184.5Q144.6 185.7 146.4 187.5T150.3 192.9Q154.2 198.9 151.5 203.1Q149.7 205.8 147 204.9T142.8 201.3Q142.2 200.4 141.9 198T140.7 194.4T138.9 192Q137.4 190.8 134.4 190.8T129.3 191.4Q128.1 192 127.5 193.2T126.9 195.3T126.9 198.3T127.2 201Q127.2 202.2 127.5 203.1T128.1 204.9T129.3 206.7T130.5 207.9T132 209.4T133.5 210.9Q135.9 213.3 138.3 214.5T144.3 215.7T149.4 215.4T155.4 214.2T160.8 213Q165.9 212.1 171.6 218.4Q172.5 219.6 174.3 220.8T176.7 223.5T177.3 226.8Q177.3 228.9 177 234T176.4 242.4T177 250.2T179.1 257.1Q160.5 264 140.7 264Q126.6 264 112.2 260.4V259.8Q112.2 254.1 112.8 253.5Q114 251.7 117.6 251.1T124.2 250.5T129.6 248.4T131.1 243Q129.9 238.8 125.4 234T115.8 225.3Q109.8 220.8 101.1 219.9Q100.8 219.9 99.3 219.6T97.2 219.3T94.8 219.3T92.1 219.3T89.7 219.6T87.6 219.9T85.8 220.8T84.6 222.6T84.3 224.7Q84.6 227.1 87 229.5T92.1 232.5T98.4 234.6T103.5 236.1Q103.8 239.7 102.3 241.2T98.7 241.5T93.9 240T88.5 238.2T84.3 238.5Q83.4 240.9 85.8 242.4T88.5 244.5Q90 247.8 86.1 250.2Q77.4 245.4 70.2 239.7Q73.5 239.1 75.3 237.9T77.4 233.4Q77.4 232.2 76.8 231T75.3 229.2T73.5 227.4T71.7 225.9Q67.5 221.7 65.4 218.4Q64.5 217.2 63.3 212.1T60 205.8Q56.4 203.7 55.2 205.5T53.7 211.2V213.6L53.4 214.5L52.2 215.1Q50.4 215.7 46.8 214.8Q26.4 185.7 26.4 150zM174.3 128.4Q174 119.1 180.3 112.2Q188.4 104.1 195.9 102.6Q199.2 102 204.6 103.2T212.1 104.1Q212.1 99 206.4 88.2Q199.8 77.1 196.5 73.8Q195.9 72.9 194.4 71.7T192.3 69.9T190.8 67.8T189.6 66T189.3 63.6T189.9 60.9Q190.2 60.3 191.1 58.2T192 55.8T191.7 53.1Q191.4 51.9 190.5 51.3T188.7 50.1T186.6 49.2Q185.4 48.3 183.3 46.5T179.4 43.8T175.8 41.4Q210.6 52.8 232.8 82.8T255 150Q255 153.6 254.4 160.8Q253.2 159.3 252.9 157.2Q252.3 152.1 252.3 150.9Q252.3 150 252.6 146.7T252.6 141.3T251.4 137.7Q250.5 136.8 249.6 136.5T247.2 137.1T245.1 138.9T243 141T240.9 142.5Q238.5 144.3 236.7 145.2T232.8 147T228.3 147.6T223.8 146.4Q218.4 143.7 212.1 143.7H208.8Q206.7 143.7 204.9 144T201.6 143.7T198.6 142.5Q198.9 139.2 201 136.5T206.1 133.5Q207.6 133.5 208.2 134.1T209.7 135.3T211.2 136.8Q213.3 138.3 218.1 138Q218.4 130.2 218.1 128.7T216 125.1T214.2 121.2Q214.2 120.6 213.9 118.5T213.3 115.2T212.1 113.1T210 110.4Q207.9 108.6 204.9 107.7T199.8 108.6Q198.9 109.2 197.4 111.3T194.7 114.6Q193.8 115.2 193.2 115.8T191.7 117.3T190.5 118.8T189.3 120.3T188.1 122.4Q186.3 124.8 181.8 127.8T176.1 132Q174.9 131.4 174.6 130.8T174.3 128.4z" />
    <glyph glyph-name="globe"
      unicode="&#xF16B;"
      horiz-adv-x="290.7" d="M0 154.8Q0 215.1 42.6 257.4T145.2 300T248.1 257.4T290.7 154.8T248.1 51.9T145.2 9.3T42.6 51.9T0 154.8zM18.9 150Q21 100.2 56.4 65.1Q72 76.2 89.1 83.1Q76.2 114.9 75 150H18.9zM18.9 159.3H75Q76.2 190.5 86.1 218.1Q67.5 225.6 51 238.5Q20.4 204.6 18.9 159.3zM57.3 245.4Q72.6 233.7 89.7 226.8Q102.6 257.1 124.8 279.6Q85.5 273 57.3 245.4zM63.3 58.5Q89.7 35.7 124.8 30Q105.6 49.2 93.3 74.4Q77.4 68.7 63.3 58.5zM84.3 150Q85.5 116.7 97.8 86.1Q118.5 92.7 140.7 93.9V150H84.3zM84.3 159.3H140.7V206.4Q117.3 207.3 94.8 215.1Q85.5 188.7 84.3 159.3zM98.4 223.8Q119.1 216.9 140.7 215.7V281.1H140.1Q113.1 258.3 98.4 223.8zM102 78Q116.7 48 140.1 28.2H140.7V84.3Q120 83.1 102 78zM150 28.2H150.6Q174 48 188.7 78Q170.4 83.1 150 84.3V28.2zM150 93.9Q172.2 92.7 192.9 86.1Q205.2 116.7 206.4 150H150V93.9zM150 159.3H206.4Q205.2 188.7 195.6 215.1Q173.4 207.3 150 206.4V159.3zM150 215.7Q171.6 216.9 192.3 223.8Q177.6 258.3 150.6 281.1H150V215.7zM165.9 30Q201 35.7 227.4 58.5Q213.3 68.7 197.4 74.4Q185.1 49.2 165.9 30zM165.9 279.6Q188.1 257.1 201 226.8Q218.1 233.7 233.1 245.4Q205.2 273 165.9 279.6zM201.6 83.1Q218.7 76.2 234.3 65.1Q269.4 100.2 271.8 150H215.7Q214.5 114.9 201.6 83.1zM204.6 218.1Q214.5 190.5 215.7 159.3H271.8Q270 204.6 239.7 238.5Q223.2 225.6 204.6 218.1z" />
    <glyph glyph-name="heart-1"
      unicode="&#xF16C;"
      horiz-adv-x="300" d="M207.3 281.33073C196.6161 281.27505 186.0492 279.0984000000001 176.2131 274.92699C166.377 270.75561 157.467 264.6726 150 257.0307C138.8844 268.4106 124.6317 276.22281 109.0593 279.47178C93.4869 282.72078 77.2995 281.25933 62.5608 275.2737C47.8218 269.2881 35.1993 259.0494 26.30142 245.8626C17.40366 232.6761 12.63387 217.1385 12.6 201.2307C12.6 128.3307 137.4 25.7307 142.8 21.2307C144.8337 19.5741 147.3768 18.6693 150 18.6693C152.6232 18.6693 155.1663 19.5741 157.2 21.2307C162.6 25.7307 287.4 128.3307 287.4 201.2307C287.4 222.4746 278.961 242.8482 263.9391 257.8701C248.9175 272.89164 228.5439 281.33073 207.3 281.33073z" />
    </font>
</defs>
</svg>
